Loading...
Error

Тайная жизнь домашних животных / The Secret Life of Pets (Ярроу Чейни, Крис Рено) [2016 г., мультфильм, комедия, семейный, BDRip 1080p] Dub (Line) + Original

Статистика раздачи
Размер:  4,48 GB   |    Зарегистрирован:  1 год 7 месяцев   |    Скачан:  6 раз

Полного источника не было: 10 дней

Сидов:  0  |  0 KB/s  ]   Личеров:  0  |  0 KB/s  ]

* - сиды/пиры с внешних источников

   
 
Автор Сообщение

makkol Пол:Муж

05-Ноя-2016 21:44

Тайная жизнь домашних животных
The Secret Life of Pets
«Думаете, они ждут вас у порога весь день?»


Год выпуска: 2016
Жанр: мультфильм, комедия, семейный
Производство: Япония , США [Dentsu / Fuji Television Network Inc., Illumination Entertainment, Universal Pictures]
Режиссер: Ярроу Чейни, Крис Рено
Роли озвучивали: Луис С.К., Эрик Стоунстрит, Кевин Харт, Дженни Слейт, Элли Кемпер, Альберт Брукс, Лэйк Белл, Дэна Карви, Хэннибал Бёресс, Бобби Мойнахан
Сюжет фильма:
Что делают домашние животные, пока хозяева пропадают на работе? С тоской смотрят в окно? Смиренно дремлют на коврике у двери? Как бы не так. Они ведут свою тайную жизнь.

  • Мировая премьера: 18 июня 2016
  • Российская премьера: 18 августа 2016


Качество видео: BDRip 1080p

Продолжительность: 01:26:27
Формат: MKV
Видео: MPEG-4 AVC, 1920x1040 (1.85:1), 23.976 fps, 6596 kbps
Аудио #1: русский, дублированный (чистый звук), AC3 2.0, 48 kHz, 192 kbps
Аудио #2: английский, оригинал, AC3 5.1, 48 kHz, 640 kbps
Субтитры: английские вшитые отключаемые

Код:

Формат                                   : Matroska
Версия формата                           : Version 2
Размер файла                             : 4,48 Гбайт
Продолжительность                        : 1 ч. 26 м.
Общий поток                              : 7427 Кбит/сек
Дата кодирования                         : UTC 2016-11-05 13:00:36
Программа кодирования                    : mkvmerge v7.7.0 ('Six Voices') 64bit built on Feb 28 2015 23:39:33
Библиотека кодирования                   : libebml v1.3.1 + libmatroska v1.4.2

Видео
Идентификатор                            : 1
Формат                                   : AVC
Формат/Информация                        : Advanced Video Codec
Профиль формата                          : High@L4.1
Параметр CABAC формата                   : Да
Параметр ReFrames формата                : 4 кадра
Идентификатор кодека                     : V_MPEG4/ISO/AVC
Продолжительность                        : 1 ч. 26 м.
Битрейт                                  : 6596 Кбит/сек
Ширина                                   : 1920 пикселей
Высота                                   : 1040 пикселей
Соотношение сторон                       : 1,85:1
Режим частоты кадров                     : Постоянный
Частота кадров                           : 23,976 кадра/сек
Цветовое пространство                    : YUV
Субдискретизация насыщенности            : 4:2:0
Битовая глубина                          : 8 бит
Тип развёртки                            : Прогрессивная
Бит/(Пиксели*Кадры)                      : 0.138
Размер потока                            : 3,89 Гбайт (87%)
Заголовок                                : Тайная жизнь домашних животных_The Secret Life of Pets.2016.BDRip.1080p.NNMCLub
Библиотека кодирования                   : x264 core 148 r2705 3f5ed56
Настройки программы                      : cabac=1 / ref=4 / deblock=1:0:0 / analyse=0x3:0x133 / me=umh / subme=7 / psy=1 / psy_rd=1.00:0.00 / mixed_ref=1 / me_range=16 / chroma_me=1 / trellis=1 / 8x8dct=1 / cqm=0 / deadzone=21,11 / fast_pskip=0 / chroma_qp_offset=-2 / threads=32 / lookahead_threads=5 / sliced_threads=0 / nr=0 / decimate=1 / interlaced=0 / bluray_compat=0 / constrained_intra=0 / bframes=3 / b_pyramid=2 / b_adapt=1 / b_bias=0 / direct=1 / weightb=1 / open_gop=0 / weightp=2 / keyint=250 / keyint_min=23 / scenecut=40 / intra_refresh=0 / rc_lookahead=40 / rc=2pass / mbtree=1 / bitrate=6596 / ratetol=1.0 / qcomp=0.60 / qpmin=0 / qpmax=69 / qpstep=4 / cplxblur=20.0 / qblur=0.5 / ip_ratio=1.40 / aq=1:1.00
Язык                                     : English
Default                                  : Да
Forced                                   : Нет
Statistics Tags Issue                    : mkvmerge v8.3.0 ('Over the Horizon') 64bit 2016-11-05 10:53:58 / mkvmerge v7.7.0 ('Six Voices') 64bit built on Feb 28 2015 23:39:33 2016-11-05 13:00:36
FromStats_BitRate                        : 6592498
FromStats_Duration                       : 01:26:27.149000000
FromStats_FrameCount                     : 124367
FromStats_StreamSize                     : 4274533948

Аудио #1
Идентификатор                            : 2
Формат                                   : AC-3
Формат/Информация                        : Audio Coding 3
Расширение режима                        : CM (complete main)
Параметр Endianness формата              : Big
Идентификатор кодека                     : A_AC3
Продолжительность                        : 1 ч. 26 м.
Вид битрейта                             : Постоянный
Битрейт                                  : 192 Кбит/сек
Каналы                                   : 2 канала
Расположение каналов                     : Front: L R
Частота                                  : 48,0 КГц
Частота кадров                           : 31,250 кадров/сек (1536 spf)
Метод сжатия                             : С потерями
Размер потока                            : 119 Мбайт (3%)
Заголовок                                : Дубляж (Line)
Язык                                     : Russian
Default                                  : Да
Forced                                   : Нет

Аудио #2
Идентификатор                            : 3
Формат                                   : AC-3
Формат/Информация                        : Audio Coding 3
Расширение режима                        : CM (complete main)
Параметр Endianness формата              : Big
Идентификатор кодека                     : A_AC3
Продолжительность                        : 1 ч. 26 м.
Вид битрейта                             : Постоянный
Битрейт                                  : 640 Кбит/сек
Каналы                                   : 6 каналов
Расположение каналов                     : Front: L C R, Side: L R, LFE
Частота                                  : 48,0 КГц
Частота кадров                           : 31,250 кадров/сек (1536 spf)
Метод сжатия                             : С потерями
Размер потока                            : 396 Мбайт (9%)
Язык                                     : English
Default                                  : Нет
Forced                                   : Нет
Statistics Tags Issue                    : mkvmerge v8.3.0 ('Over the Horizon') 64bit 2016-11-05 10:53:58 / mkvmerge v7.7.0 ('Six Voices') 64bit built on Feb 28 2015 23:39:33 2016-11-05 13:00:36
FromStats_BitRate                        : 640000
FromStats_Duration                       : 01:26:27.200000000
FromStats_FrameCount                     : 162100
FromStats_StreamSize                     : 414976000

Текст
Идентификатор                            : 4
Формат                                   : UTF-8
Идентификатор кодека                     : S_TEXT/UTF8
Идентификатор кодека/Информация          : UTF-8 Plain Text
Язык                                     : English
Default                                  : Нет
Forced                                   : Нет

Меню
00:00:00.000                             : en:00:00:00.000
00:05:05.847                             : en:00:05:05.847
00:09:24.063                             : en:00:09:24.063
00:13:18.840                             : en:00:13:18.840
00:18:03.666                             : en:00:18:03.666
00:22:14.458                             : en:00:22:14.458
00:28:51.855                             : en:00:28:51.855
00:32:54.848                             : en:00:32:54.848
00:36:55.839                             : en:00:36:55.839
00:42:27.295                             : en:00:42:27.295
00:44:46.767                             : en:00:44:46.767
00:50:21.227                             : en:00:50:21.227
00:54:45.407                             : en:00:54:45.407
00:59:33.987                             : en:00:59:33.987
01:02:36.544                             : en:01:02:36.544
01:07:12.362                             : en:01:07:12.362
01:13:06.841                             : en:01:13:06.841
01:16:04.602                             : en:01:16:04.602
01:18:48.057                             : en:01:18:48.057
01:19:58.836                             : en:01:19:58.836


picpicpicpicpic
Для увеличения картинки щелкните мышкой по превью

Этот торрент недоступен для скачивания без регистрации, однако доступен по публичной magnet-ссылке (источники с публичных трекеров). Перед использованием ссылки прочтите, пожалуйста Пользовательское соглашение, а также как можно дольше оставайтесь на раздаче! Для того, чтобы скачать сам торрент-файл (который видит больше источников), а также для того, чтобы поблагодарить релизера, вам необходимо зарегистрироваться. Если регистрироваться лень - вы можете также попробовать скачать релиз по нашим партнерским ссылкам ниже. Кроме того, зарегистрированным пользователям не показывается всплывающая реклама при скачивании.

[underverse.su].t72399.torrent
Трекер: Зарегистрирован   [ 05.11.2016 21:44 ]  

Статус: T временная (by makkol at 08.11.2016 10:41)
Поблагодарили: пока никто не поблагодарил...
Тип торрента: публичный - доступные источники с открытых трекеров: 
Размер: 4,48 GB (занимает 1,02 DVDR, для записи нужно 2 болванки DVDR/RW)
 
 
Похожие темы
Форум Тема Автор Торрент Отв. Посл. сооб.
Зарубежные мультфильмы Тайная жизнь домашних животных / The Secret Life of Pets (Ярроу Чейни / Yarrow Cheney, Крис Рено / Chris Renaud) [2016 г., мультфильм, комедия, семейный, BDRip-AVC] Dub + Original (Eng) + Sub (Rus,... 90ytr90
107 | 0

0 | 781

11

13.12.2016 03:07

Зарубежные мультфильмы Тайная жизнь домашних животных / The Secret Life of Pets (Ярроу Чейни / Yarrow Cheney, Крис Рено / Chris Renaud) [2016 г., мультфильм, комедия, семейный, BDRip-AVC] Dub + Sub (Rus) 90ytr90
9 | 2

0 | 672

9

13.12.2016 03:03

Зарубежные мультфильмы Тайная жизнь домашних животных / The Secret Life of Pets (Ярроу Чейни / Yarrow Cheney, Крис Рено / Chris Renaud) [2016 г., мультфильм, комедия, семейный, BDRip] Dub + Sub (Rus) 90ytr90
260 | 3

0 | 876

19

13.12.2016 02:55

Зарубежные мультфильмы Тайная жизнь домашних животных / The Secret Life of Pets (Ярроу Чейни / Yarrow Cheney, Крис Рено / Chris Renaud) [2016 г., мультфильм, комедия, семейный, BDRip] Dub + Sub (Rus) 90ytr90
7 | 3

0 | 710

7

13.12.2016 02:51

Научно-популярные фильмы Тайная жизнь европейских млекопитающих: Страж сада - ёж / The Secret Life Of European Mammals: The Garden Warrior - The Hedgehog (Николя Груа) [2007 г., документальный, флора, фауна, TVRip] VO ARI71
0 | 0

0 | 933

6

17.08.2016 20:49

Научно-популярные фильмы Тайная жизнь материалов (Тайный мир веществ) / Secret Life Of Materials (Панос Раптис) [2015 г., документальный, научно-популярный, HDTVRip] DVO (1 ТВЧ) ARI71
3 | 3

0 | 563

8

06.05.2018 18:03

Зарубежное кино [HDDVDRip / BDRip / WEB-DL / HDTV 1080/720р] Тайная жизнь домашних животных / The Secret Life of Pets (Ярроу Чейни / Yarrow Cheney, Крис Рено / Chris Renaud) [2016 г., мультфильм, комедия, семейный, BDRip 1080p] 2xDub (Rus, Ukr) + Original... 90ytr90
38 | 0

0 | 682

8

07.01.2017 14:44

Документальное кино [HDDVDRip / BDRip / WEB-DL / HDTV 1080/720р] Тайная жизнь близнецов / The Secret Life of Twins (Люк Уайлз) [2015 г., документальный, научно-популярный, HDTVRip 720p] DVO (Видеофильм ТВ) ARI71
0 | 0

0 | 389

1

27.09.2017 19:22

Документальное кино [HDDVDRip / BDRip / WEB-DL / HDTV 1080/720р] Тайная жизнь материалов (Тайный мир веществ) / Secret Life Of Materials (Панос Раптис) [2015 г., документальный, научно-популярный, HDTVRip 720p] DVO (1 ТВЧ) + Original (Eng) ARI71
1 | 3

0 | 244

14

03.05.2018 08:40

Мультфильмы [HDDVDRip / BDRip / WEB-DL / HDTV 1080/720р] Тайная жизнь домашних животных / The Secret Life of Pets (Ярроу Чейни / Yarrow Cheney, Крис Рено / Chris Renaud) [2016 г., мультфильм, комедия, семейный, BDRip 1080p] Dub + Original (Eng) + Sub (Rus,... 90ytr90
3 | 3

0 | 712

6

13.12.2016 16:01


Яндекс.Метрика powered by Sphinx


В Н И М А Н И Е
Сайт не распространяет и не хранит электронные версии произведений, а лишь бесплатно и без коммерческой выгоды (не требуя взамен платы,
SMS и т.д.) предоставляет доступ к создаваемому пользователями каталогу ссылок на торрент-файлы, которые содержат только списки хеш-сумм.
Убедительная просьба с жалобами обращаться напрямую к пользователю, разместившему торрент файл.

Вверх