Loading...
Error

(Авторская песня) Александр Розенбаум - Grand Collection (Часть 1) (2002) [FLAC (Image+.Cue), Lossless]

Статистика раздачи
Размер:  513 MB   |    Зарегистрирован:  1 год 8 месяцев   |    Скачан:  6 раз

Полного источника не было: 6 дней

Сидов:  0  |  0 KB/s  ]   Личеров:  0  |  0 KB/s  ]

* - сиды/пиры с внешних источников

   
 
Автор Сообщение

Бишеп Пол:Муж

13-Ноя-2016 19:19

Александр Розенбаум - Grand Collection (Часть 1)

Жанр: Авторская песня
Год выпуска: 2002
Источник: CD
Производитель диска: Квадро-Диск
Аудиокодек: FLAC
Тип рипа: Image+.CUE
Битрейт аудио: lossless
Продолжительность: 01:18:09


Треклист:
01. Налетела грусть
02. Вальс бостон
03. Грусть моя
04. Подари, Господь, мелодию
05. Глухари
06. В середине пути
07. Где-нибудь, как-нибудь
08. Ты любовь моя
09. Утиная охота
10. Осень
11. На плантациях любви
12. Если было-бы можно
13. Одиночество
14. Ау
15. Зима
16. Жеребёнок

Код:

Exact Audio Copy V1.0 beta 3 from 29. August 2011

Отчёт EAC об извлечении, выполненном 6. марта 2012, 0:08

Александр Розенбаум / Grand Collection, часть 1

Дисковод: hp      DVD-RAM GH60L   Adapter: 0  ID: 0

Режим чтения                 : Достоверность
Использование точного потока : Да
Отключение кэша аудио        : Да
Использование указателей C2  : Нет

Коррекция смещения при чтении                     : 667
Способность читать области Lead-in и Lead-out     : Нет
Заполнение пропущенных сэмплов тишиной            : Да
Удаление блоков с тишиной в начале и конце        : Нет
При вычислениях CRC использовались нулевые сэмплы : Да
Интерфейс                                         : Встроенный Win32-интерфейс для Win NT/2000

Выходной формат          : Пользовательский кодировщик
Выбранный битрейт        : 128 kBit/s
Качество                 : Высокий
Добавление ID3-тега      : Нет
Утилита сжатия           : C:\Program Files\Exact Audio Copy\Flac\flac.exe
Дополнительные параметры : -V -8 -T "Date=%year%" -T "Genre=%genre%" %source%

TOC извлечённого CD

     Трек |   Старт  | Длительность | Начальный сектор | Конечный сектор
    ---------------------------------------------------------------------
       1  |  0:00.00 |    3:09.35   |           0      |      14209     
       2  |  3:09.35 |    3:36.39   |       14210      |      30448     
       3  |  6:45.74 |    6:23.62   |       30449      |      59235     
       4  | 13:09.61 |    5:17.56   |       59236      |      83066     
       5  | 18:27.42 |    3:16.47   |       83067      |      97813     
       6  | 21:44.14 |    6:17.00   |       97814      |     126088     
       7  | 28:01.14 |    4:04.03   |      126089      |     144391     
       8  | 32:05.17 |    6:50.71   |      144392      |     175212     
       9  | 38:56.13 |    4:16.06   |      175213      |     194418     
      10  | 43:12.19 |    3:24.35   |      194419      |     209753     
      11  | 46:36.54 |    5:30.53   |      209754      |     234556     
      12  | 52:07.32 |    6:51.51   |      234557      |     265432     
      13  | 58:59.08 |    4:48.15   |      265433      |     287047     
      14  | 63:47.23 |    4:57.61   |      287048      |     309383     
      15  | 68:45.09 |    5:42.43   |      309384      |     335076     
      16  | 74:27.52 |    3:41.58   |      335077      |     351709     

Характеристики диапазона извлечения и сообщения об ошибках

Выбранный диапазон

     Имя файла C:\CD RIP\Александр Розенбаум - Grand Collection (Часть 1).wav

     Пиковый уровень 100.0 %
     Скорость извлечения 3.4 X
     Качество диапазона 100.0 %
     CRC теста B20DCFAF
     CRC копии B20DCFAF
     Копирование... OK

Ошибок не произошло

 
AccurateRip: сводка
 
Трек  1  точность не определена (достоверность 1)  [7B1AA910], AccurateRip вернул [E17A48FA]  (AR v2)
Трек  2  точность не определена (достоверность 1)  [BED72222], AccurateRip вернул [AD0CCCAD]  (AR v2)
Трек  3  точность не определена (достоверность 1)  [93F7BAB0], AccurateRip вернул [25789156]  (AR v2)
Трек  4  точность не определена (достоверность 1)  [D85706DD], AccurateRip вернул [785368FC]  (AR v2)
Трек  5  точность не определена (достоверность 1)  [9DC3A60B], AccurateRip вернул [7540465D]  (AR v2)
Трек  6  точность не определена (достоверность 1)  [B792B1EC], AccurateRip вернул [47B357BD]  (AR v2)
Трек  7  точность не определена (достоверность 1)  [458B5109], AccurateRip вернул [7EBC2C6C]  (AR v2)
Трек  8  точность не определена (достоверность 1)  [A9179712], AccurateRip вернул [B70B381C]  (AR v2)
Трек  9  точность не определена (достоверность 1)  [3361F4A6], AccurateRip вернул [A83BDF0E]  (AR v2)
Трек 10  точность не определена (достоверность 1)  [DC1BEF1E], AccurateRip вернул [C3818AD8]  (AR v2)
Трек 11  точность не определена (достоверность 1)  [A50E8B95], AccurateRip вернул [77FC7CF8]  (AR v2)
Трек 12  точность не определена (достоверность 1)  [AC0647B3], AccurateRip вернул [17A349A4]  (AR v2)
Трек 13  точность не определена (достоверность 1)  [4F8963DA], AccurateRip вернул [412E9EE3]  (AR v2)
Трек 14  точность не определена (достоверность 1)  [A29F4FC7], AccurateRip вернул [A9262AB3]  (AR v2)
Трек 15  точность не определена (достоверность 1)  [476C1F6E], AccurateRip вернул [45308F31]  (AR v2)
Трек 16  точность не определена (достоверность 1)  [0FD5AB16], AccurateRip вернул [DD7C2F3C]  (AR v2)
 
Ни один трек не прошёл проверки на точность
В вашей базе может быть иной вариант штамповки диска

Конец отчёта

==== Контрольная сумма отчёта BBDECB283E7AE53B2DE08F9F44253D01CA3C47D6745B1B449F4F36D7B8FAFF25 ====

Код:

REM GENRE "Авторская песня"
REM DATE 2002
REM DISCID F8125110
REM COMMENT "ExactAudioCopy v1.0b3"
PERFORMER "Александр Розенбаум"
TITLE "Grand Collection (Часть 1)"
FILE "Александр Розенбаум - Grand Collection (Часть 1).flac" WAVE
  TRACK 01 AUDIO
    TITLE "Налетела грусть"
    PERFORMER "Александр Розенбаум"
    INDEX 01 00:00:00
  TRACK 02 AUDIO
    TITLE "Вальс бостон"
    PERFORMER "Александр Розенбаум"
    INDEX 01 03:09:35
  TRACK 03 AUDIO
    TITLE "Грусть моя"
    PERFORMER "Александр Розенбаум"
    INDEX 01 06:45:74
  TRACK 04 AUDIO
    TITLE "Подари, Господь, мелодию"
    PERFORMER "Александр Розенбаум"
    INDEX 01 13:09:61
  TRACK 05 AUDIO
    TITLE "Глухари"
    PERFORMER "Александр Розенбаум"
    INDEX 01 18:27:42
  TRACK 06 AUDIO
    TITLE "В середине пути"
    PERFORMER "Александр Розенбаум"
    INDEX 01 21:44:14
  TRACK 07 AUDIO
    TITLE "Где-нибудь, как-нибудь"
    PERFORMER "Александр Розенбаум"
    INDEX 01 28:01:14
  TRACK 08 AUDIO
    TITLE "Ты любовь моя"
    PERFORMER "Александр Розенбаум"
    INDEX 01 32:05:17
  TRACK 09 AUDIO
    TITLE "Утиная охота"
    PERFORMER "Александр Розенбаум"
    INDEX 01 38:56:13
  TRACK 10 AUDIO
    TITLE "Осень"
    PERFORMER "Александр Розенбаум"
    INDEX 01 43:12:19
  TRACK 11 AUDIO
    TITLE "На плантациях любви"
    PERFORMER "Александр Розенбаум"
    INDEX 01 46:36:54
  TRACK 12 AUDIO
    TITLE "Если было-бы можно"
    PERFORMER "Александр Розенбаум"
    INDEX 01 52:07:32
  TRACK 13 AUDIO
    TITLE "Одиночество"
    PERFORMER "Александр Розенбаум"
    INDEX 01 58:59:08
  TRACK 14 AUDIO
    TITLE "Ау"
    PERFORMER "Александр Розенбаум"
    INDEX 01 63:47:23
  TRACK 15 AUDIO
    TITLE "Зима"
    PERFORMER "Александр Розенбаум"
    INDEX 01 68:45:09
  TRACK 16 AUDIO
    TITLE "Жеребёнок"
    PERFORMER "Александр Розенбаум"
    INDEX 01 74:27:52

Этот торрент недоступен для скачивания без регистрации, однако доступен по публичной magnet-ссылке (источники с публичных трекеров). Перед использованием ссылки прочтите, пожалуйста Пользовательское соглашение, а также как можно дольше оставайтесь на раздаче! Для того, чтобы скачать сам торрент-файл (который видит больше источников), а также для того, чтобы поблагодарить релизера, вам необходимо зарегистрироваться. Если регистрироваться лень - вы можете также попробовать скачать релиз по нашим партнерским ссылкам ниже. Кроме того, зарегистрированным пользователям не показывается всплывающая реклама при скачивании.

[underverse.su].t73536.torrent
Трекер: Зарегистрирован   [ 13.11.2016 19:19 ]  

Статус: проверено (by Бишеп at 13.11.2016 19:19)
Поблагодарили: пока никто не поблагодарил...
Тип торрента: публичный - доступные источники с открытых трекеров: 
Размер: 513 MB (занимает 0,11 DVDR, для записи нужно 1 болванка DVDR/RW)
 
 
Похожие темы
Форум Тема Автор Торрент Отв. Посл. сооб.
Авторские песни, Барды (Авторская песня) Владимир Высоцкий - Полная коллекция (2009) [MP3, 320 kbps] Добрый жмот
21 | 5

11 | 5870

82

31.07.2013 07:22

Авторские песни, Барды (Авторская песня) Тимур Шаов - О чем молчал Герасим... (2010) [MP3, 320 kbps] KonKoSerg
5 | 0

4 | 2609

26

24.08.2013 06:03

Авторские песни, Барды (Авторская песня) Татьяна и Сергей Никитины - Городок, что я выдумал (2011) [MP3, 320 kbps] KonKoSerg
6 | 1

1 | 2898

40

11.05.2013 10:18

Авторские песни, Барды (Авторская песня) Владимир Высоцкий - Дискография [22 СD] (2001-2007) [MP3, 320 CBR] vovanig
2 | 0

2 | 3510

57

07.08.2014 19:18

Авторские песни, Барды (Авторская песня) Семён Слепаков - Альбом 1 (2012) [MP3, 320 kbps CBR] Бишеп
1 | 0

1 | 2051

53

11.05.2013 07:53

Авторские песни, Барды (Авторская песня, Фолк) Никола Емелин (Емеля) - Дискография (6 альбомов) (1989 - 2011) [MP3, 64-320 kbps] gregsib
14 | 0

1 | 2044

24

05.07.2013 18:48

Авторские песни, Барды (Авторская песня) Вячеслав Мясников (Уральские пельмени) - Сборник песен (2014) [MP3, 128-320 kbps CBR] terra07
1 | 0

1 | 2696

42

09.12.2015 14:37

Авторские песни, Барды (Авторская песня) Владимир Высоцкий - Спасибо, что живой. Песни из кинофильма... - и не только (2012) [MP3, 320 kbps CBR] valera87
3 | 0

0 | 1256

8

14.03.2015 16:31

Авторские песни, Барды (Lossless) (Авторская песня) Владимир Высоцкий - Grand Collection. Часть 1 / Часть 2 (2004) [FLAC (Tracks+.CUE), lossless] garry
1 | 0

1 | 1853

12

21.04.2012 07:06

# Авторские песни, Барды (Lossless) (Авторская песня) Евгений Баранник - На Прорезной (2010) [FLAC (Tracks+.CUE), lossless] garry
1 | 0

0 | 2420

1

20.02.2012 18:25


Яндекс.Метрика powered by Sphinx


В Н И М А Н И Е
Сайт не распространяет и не хранит электронные версии произведений, а лишь бесплатно и без коммерческой выгоды (не требуя взамен платы,
SMS и т.д.) предоставляет доступ к создаваемому пользователями каталогу ссылок на торрент-файлы, которые содержат только списки хеш-сумм.
Убедительная просьба с жалобами обращаться напрямую к пользователю, разместившему торрент файл.

Вверх