Loading...
Error

(Авторская песня) Татьяна и Сергей Никитины - На этом береге... (Песни на стихи Юнны Мориц) (2014) [FLAC (Tracks+.Cue), Lossless]

Статистика раздачи
Размер:  368 MB   |    Зарегистрирован:  1 год 8 месяцев   |    Скачан:  6 раз

Полного источника не было: 22 дня

Сидов:  0  |  0 KB/s  ]   Личеров:  0  |  0 KB/s  ]

* - сиды/пиры с внешних источников

   
 
Автор Сообщение

Бишеп Пол:Муж

14-Ноя-2016 11:48

Татьяна и Сергей Никитины - На этом береге... (Песни на стихи Юнны Мориц)

Жанр: Авторская песня
Год выпуска: 2014
Источник: CD
Производитель диска: Музпром-МО - МузПром 265
Аудиокодек: FLAC
Тип рипа: Tracks+.CUE
Битрейт аудио: lossless
Продолжительность: 01:04:40


Треклист:
01. За невлюблёнными людьми (4:17)
02. Дует ветер из окошка (3:12)
03. Талисман (3:26)
04. На тему Снегурочки (3:05)
05. На стоянке (3:23)
06. Я хуже, чем ты говоришь (3:10)
07. Когда мы были молодые (5:05)
08. Объяснение в любви (2:39)
09. Баллада о щепке (Посвящение Рине Зелёной) (2:46)
10. Пони (1:43)
11. Большой лошадиный секрет (4:06)
12. Побег (Давай, душа, давай...) (3:01)
13. В дверь приоткрытую ветром (Деревня) (4:20)
14. Зимний праздник (3:04)
15. Путеводная звезда (2:33)
16. Марго в облаках (3:50)
17. Сыну (2:49)
18. Переведи меня через майдан (5:01)
19. На этом береге (3:11)

Код:

Exact Audio Copy V1.0 beta 3 from 29. August 2011

Отчёт EAC об извлечении, выполненном 28. февраля 2015, 17:26

Татьяна и Сергей Никитины / На этом береге... (Песни на стихи Юнны Мориц)

Дисковод: PIONEER DVD-RW  DVR-218L   Adapter: 0  ID: 0

Режим чтения                 : Достоверность
Использование точного потока : Да
Отключение кэша аудио        : Да
Использование указателей C2  : Нет

Коррекция смещения при чтении                     : 6
Способность читать области Lead-in и Lead-out     : Нет
Заполнение пропущенных сэмплов тишиной            : Да
Удаление блоков с тишиной в начале и конце        : Нет
При вычислениях CRC использовались нулевые сэмплы : Да
Интерфейс                                         : Встроенный Win32-интерфейс для Win NT/2000
Обработка зазоров                                 : Добавлено к предыдущему треку

Выходной формат          : Пользовательский кодировщик
Выбранный битрейт        : 128 kBit/s
Качество                 : Высокий
Добавление ID3-тега      : Нет
Утилита сжатия           : C:\Program Files (x86)\Exact Audio Copy\Flac\flac.exe
Дополнительные параметры : -V -7 -T "Genre=%genre%" -T "Artist=%artist%" -T "Title=%title%" -T "Album=%albumtitle%" -T "Date=%year%" -T "Tracknumber=%tracknr%" -T "Comment=%comment%" %source%

TOC извлечённого CD

     Трек |   Старт  | Длительность | Начальный сектор | Конечный сектор
    ---------------------------------------------------------------------
       1  |  0:00.00 |    4:17.30   |           0      |      19304     
       2  |  4:17.30 |    3:12.17   |       19305      |      33721     
       3  |  7:29.47 |    3:25.51   |       33722      |      49147     
       4  | 10:55.23 |    3:04.68   |       49148      |      63015     
       5  | 14:00.16 |    3:22.55   |       63016      |      78220     
       6  | 17:22.71 |    3:09.64   |       78221      |      92459     
       7  | 20:32.60 |    5:05.12   |       92460      |     115346     
       8  | 25:37.72 |    2:38.61   |      115347      |     127257     
       9  | 28:16.58 |    2:45.65   |      127258      |     139697     
      10  | 31:02.48 |    1:42.53   |      139698      |     147400     
      11  | 32:45.26 |    4:06.28   |      147401      |     165878     
      12  | 36:51.54 |    3:01.01   |      165879      |     179454     
      13  | 39:52.55 |    4:19.51   |      179455      |     198930     
      14  | 44:12.31 |    3:03.57   |      198931      |     212712     
      15  | 47:16.13 |    2:32.58   |      212713      |     224170     
      16  | 49:48.71 |    3:49.73   |      224171      |     241418     
      17  | 53:38.69 |    2:49.23   |      241419      |     254116     
      18  | 56:28.17 |    5:00.62   |      254117      |     276678     
      19  | 61:29.04 |    3:10.41   |      276679      |     290969     

Трек  1

     Имя файла E:\_VIDEO\_seriaЛЫ_\!!!muz\Татьяна и Сергей Никитины - На этом береге... (Песни на стихи Юнны Мориц) 2014\01 За невлюблёнными людьми.wav

     Длина предзазора  0:00:02.00

     Пиковый уровень 93.1 %
     Скорость извлечения 1.1 X
     Качество трека 100.0 %
     CRC теста 1B190B40
     CRC копии 1B190B40
     Трек не обнаружен в базе AccurateRip
     Копирование... OK

Трек  2

     Имя файла E:\_VIDEO\_seriaЛЫ_\!!!muz\Татьяна и Сергей Никитины - На этом береге... (Песни на стихи Юнны Мориц) 2014\02 Дует ветер из окошка.wav

     Длина предзазора  0:00:00.10

     Пиковый уровень 77.1 %
     Скорость извлечения 1.0 X
     Качество трека 99.9 %
     CRC теста 0B84FDF2
     CRC копии 0B84FDF2
     Трек не обнаружен в базе AccurateRip
     Копирование... OK

Трек  3

     Имя файла E:\_VIDEO\_seriaЛЫ_\!!!muz\Татьяна и Сергей Никитины - На этом береге... (Песни на стихи Юнны Мориц) 2014\03 Талисман.wav

     Длина предзазора  0:00:00.06

     Пиковый уровень 80.6 %
     Скорость извлечения 1.3 X
     Качество трека 100.0 %
     CRC теста F291A14E
     CRC копии F291A14E
     Трек не обнаружен в базе AccurateRip
     Копирование... OK

Трек  4

     Имя файла E:\_VIDEO\_seriaЛЫ_\!!!muz\Татьяна и Сергей Никитины - На этом береге... (Песни на стихи Юнны Мориц) 2014\04 На тему Снегурочки.wav

     Длина предзазора  0:00:00.54

     Пиковый уровень 98.9 %
     Скорость извлечения 1.2 X
     Качество трека 99.9 %
     CRC теста E7A0BAF1
     CRC копии E7A0BAF1
     Трек не обнаружен в базе AccurateRip
     Копирование... OK

Трек  5

     Имя файла E:\_VIDEO\_seriaЛЫ_\!!!muz\Татьяна и Сергей Никитины - На этом береге... (Песни на стихи Юнны Мориц) 2014\05 На стоянке.wav

     Длина предзазора  0:00:01.21

     Пиковый уровень 92.3 %
     Скорость извлечения 1.5 X
     Качество трека 100.0 %
     CRC теста 28DA3CC2
     CRC копии 28DA3CC2
     Трек не обнаружен в базе AccurateRip
     Копирование... OK

Трек  6

     Имя файла E:\_VIDEO\_seriaЛЫ_\!!!muz\Татьяна и Сергей Никитины - На этом береге... (Песни на стихи Юнны Мориц) 2014\06 Я хуже, чем ты говоришь.wav

     Длина предзазора  0:00:00.42

     Пиковый уровень 75.2 %
     Скорость извлечения 1.5 X
     Качество трека 100.0 %
     CRC теста 45588502
     CRC копии 45588502
     Трек не обнаружен в базе AccurateRip
     Копирование... OK

Трек  7

     Имя файла E:\_VIDEO\_seriaЛЫ_\!!!muz\Татьяна и Сергей Никитины - На этом береге... (Песни на стихи Юнны Мориц) 2014\07 Когда мы были молодые.wav

     Длина предзазора  0:00:00.58

     Пиковый уровень 98.9 %
     Скорость извлечения 1.7 X
     Качество трека 100.0 %
     CRC теста 1BB235FA
     CRC копии 1BB235FA
     Трек не обнаружен в базе AccurateRip
     Копирование... OK

Трек  8

     Имя файла E:\_VIDEO\_seriaЛЫ_\!!!muz\Татьяна и Сергей Никитины - На этом береге... (Песни на стихи Юнны Мориц) 2014\08 Объяснение в любви.wav

     Длина предзазора  0:00:01.04

     Пиковый уровень 87.8 %
     Скорость извлечения 1.6 X
     Качество трека 100.0 %
     CRC теста 9E30FEED
     CRC копии 9E30FEED
     Трек не обнаружен в базе AccurateRip
     Копирование... OK

Трек  9

     Имя файла E:\_VIDEO\_seriaЛЫ_\!!!muz\Татьяна и Сергей Никитины - На этом береге... (Песни на стихи Юнны Мориц) 2014\09 Баллада о щепке (Посвящение Рине Зелёной).wav

     Длина предзазора  0:00:01.14

     Пиковый уровень 90.0 %
     Скорость извлечения 1.7 X
     Качество трека 100.0 %
     CRC теста 9E83D44D
     CRC копии 9E83D44D
     Трек не обнаружен в базе AccurateRip
     Копирование... OK

Трек 10

     Имя файла E:\_VIDEO\_seriaЛЫ_\!!!muz\Татьяна и Сергей Никитины - На этом береге... (Песни на стихи Юнны Мориц) 2014\10 Пони.wav

     Длина предзазора  0:00:00.24

     Пиковый уровень 98.5 %
     Скорость извлечения 1.5 X
     Качество трека 100.0 %
     CRC теста DA823BA3
     CRC копии DA823BA3
     Трек не обнаружен в базе AccurateRip
     Копирование... OK

Трек 11

     Имя файла E:\_VIDEO\_seriaЛЫ_\!!!muz\Татьяна и Сергей Никитины - На этом береге... (Песни на стихи Юнны Мориц) 2014\11 Большой лошадиный секрет.wav

     Длина предзазора  0:00:00.36

     Пиковый уровень 98.6 %
     Скорость извлечения 1.9 X
     Качество трека 100.0 %
     CRC теста 4DE85DA4
     CRC копии 4DE85DA4
     Трек не обнаружен в базе AccurateRip
     Копирование... OK

Трек 12

     Имя файла E:\_VIDEO\_seriaЛЫ_\!!!muz\Татьяна и Сергей Никитины - На этом береге... (Песни на стихи Юнны Мориц) 2014\12 Побег (Давай, душа, давай...).wav

     Длина предзазора  0:00:00.13

     Пиковый уровень 91.1 %
     Скорость извлечения 1.9 X
     Качество трека 100.0 %
     CRC теста 5EE9523A
     CRC копии 5EE9523A
     Трек не обнаружен в базе AccurateRip
     Копирование... OK

Трек 13

     Имя файла E:\_VIDEO\_seriaЛЫ_\!!!muz\Татьяна и Сергей Никитины - На этом береге... (Песни на стихи Юнны Мориц) 2014\13 В дверь приоткрытую ветром (Деревня).wav

     Длина предзазора  0:00:00.35

     Пиковый уровень 96.7 %
     Скорость извлечения 2.0 X
     Качество трека 100.0 %
     CRC теста A847E971
     CRC копии A847E971
     Трек не обнаружен в базе AccurateRip
     Копирование... OK

Трек 14

     Имя файла E:\_VIDEO\_seriaЛЫ_\!!!muz\Татьяна и Сергей Никитины - На этом береге... (Песни на стихи Юнны Мориц) 2014\14 Зимний праздник.wav

     Длина предзазора  0:00:00.69

     Пиковый уровень 80.9 %
     Скорость извлечения 2.0 X
     Качество трека 100.0 %
     CRC теста 866DFAFE
     CRC копии 866DFAFE
     Трек не обнаружен в базе AccurateRip
     Копирование... OK

Трек 15

     Имя файла E:\_VIDEO\_seriaЛЫ_\!!!muz\Татьяна и Сергей Никитины - На этом береге... (Песни на стихи Юнны Мориц) 2014\15 Путеводная звезда.wav

     Длина предзазора  0:00:00.48

     Пиковый уровень 82.9 %
     Скорость извлечения 2.0 X
     Качество трека 100.0 %
     CRC теста 1B8EA87E
     CRC копии 1B8EA87E
     Трек не обнаружен в базе AccurateRip
     Копирование... OK

Трек 16

     Имя файла E:\_VIDEO\_seriaЛЫ_\!!!muz\Татьяна и Сергей Никитины - На этом береге... (Песни на стихи Юнны Мориц) 2014\16 Марго в облаках.wav

     Длина предзазора  0:00:01.55

     Пиковый уровень 98.8 %
     Скорость извлечения 2.2 X
     Качество трека 100.0 %
     CRC теста EE7E82C6
     CRC копии EE7E82C6
     Трек не обнаружен в базе AccurateRip
     Копирование... OK

Трек 17

     Имя файла E:\_VIDEO\_seriaЛЫ_\!!!muz\Татьяна и Сергей Никитины - На этом береге... (Песни на стихи Юнны Мориц) 2014\17 Сыну.wav

     Длина предзазора  0:00:01.39

     Пиковый уровень 72.1 %
     Скорость извлечения 1.8 X
     Качество трека 99.9 %
     CRC теста E965F284
     CRC копии E965F284
     Трек не обнаружен в базе AccurateRip
     Копирование... OK

Трек 18

     Имя файла E:\_VIDEO\_seriaЛЫ_\!!!muz\Татьяна и Сергей Никитины - На этом береге... (Песни на стихи Юнны Мориц) 2014\18 Переведи меня через майдан.wav

     Длина предзазора  0:00:01.19

     Пиковый уровень 99.0 %
     Скорость извлечения 2.3 X
     Качество трека 100.0 %
     CRC теста 2108A288
     CRC копии 2108A288
     Трек не обнаружен в базе AccurateRip
     Копирование... OK

Трек 19

     Имя файла E:\_VIDEO\_seriaЛЫ_\!!!muz\Татьяна и Сергей Никитины - На этом береге... (Песни на стихи Юнны Мориц) 2014\19 На этом береге.wav

     Длина предзазора  0:00:00.61

     Пиковый уровень 98.9 %
     Скорость извлечения 1.9 X
     Качество трека 99.9 %
     CRC теста 7697D0DA
     CRC копии 7697D0DA
     Трек не обнаружен в базе AccurateRip
     Копирование... OK

Ни одного трека нет в базе AccurateRip

Ошибок не произошло

Конец отчёта

==== Контрольная сумма отчёта 11FA49E6493B68D3A97C7E5D601C33554D03034511878FD2A026E1963D3981BF ====

Код:

REM GENRE "Авторская песня"
REM DATE 2014
REM DISCID 210F2713
REM COMMENT "ExactAudioCopy v1.0b3"
PERFORMER "Татьяна и Сергей Никитины"
TITLE "На этом береге... (Песни на стихи Юнны Мориц)"
FILE "01 За невлюблёнными людьми.wav" WAVE
  TRACK 01 AUDIO
    TITLE "За невлюблёнными людьми"
    PERFORMER "Татьяна и Сергей Никитины"
    INDEX 01 00:00:00
  TRACK 02 AUDIO
    TITLE "Дует ветер из окошка"
    PERFORMER "Татьяна и Сергей Никитины"
    INDEX 00 04:17:20
FILE "02 Дует ветер из окошка.wav" WAVE
    INDEX 01 00:00:00
  TRACK 03 AUDIO
    TITLE "Талисман"
    PERFORMER "Татьяна и Сергей Никитины"
    INDEX 00 03:12:11
FILE "03 Талисман.wav" WAVE
    INDEX 01 00:00:00
  TRACK 04 AUDIO
    TITLE "На тему Снегурочки"
    PERFORMER "Татьяна и Сергей Никитины"
    INDEX 00 03:24:72
FILE "04 На тему Снегурочки.wav" WAVE
    INDEX 01 00:00:00
  TRACK 05 AUDIO
    TITLE "На стоянке"
    PERFORMER "Татьяна и Сергей Никитины"
    INDEX 00 03:03:47
FILE "05 На стоянке.wav" WAVE
    INDEX 01 00:00:00
  TRACK 06 AUDIO
    TITLE "Я хуже, чем ты говоришь"
    PERFORMER "Татьяна и Сергей Никитины"
    INDEX 00 03:22:13
FILE "06 Я хуже, чем ты говоришь.wav" WAVE
    INDEX 01 00:00:00
  TRACK 07 AUDIO
    TITLE "Когда мы были молодые"
    PERFORMER "Татьяна и Сергей Никитины"
    INDEX 00 03:09:06
FILE "07 Когда мы были молодые.wav" WAVE
    INDEX 01 00:00:00
  TRACK 08 AUDIO
    TITLE "Объяснение в любви"
    PERFORMER "Татьяна и Сергей Никитины"
    INDEX 00 05:04:08
FILE "08 Объяснение в любви.wav" WAVE
    INDEX 01 00:00:00
  TRACK 09 AUDIO
    TITLE "Баллада о щепке (Посвящение Рине Зелёной)"
    PERFORMER "Татьяна и Сергей Никитины"
    INDEX 00 02:37:47
FILE "09 Баллада о щепке (Посвящение Рине Зелёной).wav" WAVE
    INDEX 01 00:00:00
  TRACK 10 AUDIO
    TITLE "Пони"
    PERFORMER "Татьяна и Сергей Никитины"
    INDEX 00 02:45:41
FILE "10 Пони.wav" WAVE
    INDEX 01 00:00:00
  TRACK 11 AUDIO
    TITLE "Большой лошадиный секрет"
    PERFORMER "Татьяна и Сергей Никитины"
    INDEX 00 01:42:17
FILE "11 Большой лошадиный секрет.wav" WAVE
    INDEX 01 00:00:00
  TRACK 12 AUDIO
    TITLE "Побег (Давай, душа, давай...)"
    PERFORMER "Татьяна и Сергей Никитины"
    INDEX 00 04:06:15
FILE "12 Побег (Давай, душа, давай...).wav" WAVE
    INDEX 01 00:00:00
  TRACK 13 AUDIO
    TITLE "В дверь приоткрытую ветром (Деревня)"
    PERFORMER "Татьяна и Сергей Никитины"
    INDEX 00 03:00:41
FILE "13 В дверь приоткрытую ветром (Деревня).wav" WAVE
    INDEX 01 00:00:00
  TRACK 14 AUDIO
    TITLE "Зимний праздник"
    PERFORMER "Татьяна и Сергей Никитины"
    INDEX 00 04:18:57
FILE "14 Зимний праздник.wav" WAVE
    INDEX 01 00:00:00
  TRACK 15 AUDIO
    TITLE "Путеводная звезда"
    PERFORMER "Татьяна и Сергей Никитины"
    INDEX 00 03:03:09
FILE "15 Путеводная звезда.wav" WAVE
    INDEX 01 00:00:00
  TRACK 16 AUDIO
    TITLE "Марго в облаках"
    PERFORMER "Татьяна и Сергей Никитины"
    INDEX 00 02:31:03
FILE "16 Марго в облаках.wav" WAVE
    INDEX 01 00:00:00
  TRACK 17 AUDIO
    TITLE "Сыну"
    PERFORMER "Татьяна и Сергей Никитины"
    INDEX 00 03:48:34
FILE "17 Сыну.wav" WAVE
    INDEX 01 00:00:00
  TRACK 18 AUDIO
    TITLE "Переведи меня через майдан"
    PERFORMER "Татьяна и Сергей Никитины"
    INDEX 00 02:48:04
FILE "18 Переведи меня через майдан.wav" WAVE
    INDEX 01 00:00:00
  TRACK 19 AUDIO
    TITLE "На этом береге"
    PERFORMER "Татьяна и Сергей Никитины"
    INDEX 00 05:00:01
FILE "19 На этом береге.wav" WAVE
    INDEX 01 00:00:00

Этот торрент недоступен для скачивания без регистрации, однако доступен по публичной magnet-ссылке (источники с публичных трекеров). Перед использованием ссылки прочтите, пожалуйста Пользовательское соглашение, а также как можно дольше оставайтесь на раздаче! Для того, чтобы скачать сам торрент-файл (который видит больше источников), а также для того, чтобы поблагодарить релизера, вам необходимо зарегистрироваться. Если регистрироваться лень - вы можете также попробовать скачать релиз по нашим партнерским ссылкам ниже. Кроме того, зарегистрированным пользователям не показывается всплывающая реклама при скачивании.

[underverse.su].t73577.torrent
Трекер: Зарегистрирован   [ 14.11.2016 11:48 ]  

Статус: проверено (by Бишеп at 14.11.2016 11:48)
Поблагодарили: пока никто не поблагодарил...
Тип торрента: публичный - доступные источники с открытых трекеров: 
Размер: 368 MB (занимает 0,08 DVDR, для записи нужно 1 болванка DVDR/RW)
 
 
Похожие темы
Форум Тема Автор Торрент Отв. Посл. сооб.
Авторские песни, Барды (Авторская песня) Владимир Высоцкий - Полная коллекция (2009) [MP3, 320 kbps] Добрый жмот
19 | 4

11 | 5878

82

31.07.2013 07:22

Авторские песни, Барды (Авторская песня) Тимур Шаов - О чем молчал Герасим... (2010) [MP3, 320 kbps] KonKoSerg
5 | 0

4 | 2610

26

24.08.2013 06:03

Авторские песни, Барды (Авторская песня) Татьяна и Сергей Никитины - Городок, что я выдумал (2011) [MP3, 320 kbps] KonKoSerg
6 | 1

1 | 2903

40

11.05.2013 10:18

Авторские песни, Барды (Авторская песня) Владимир Высоцкий - Дискография [22 СD] (2001-2007) [MP3, 320 CBR] vovanig
1 | 0

2 | 3512

57

07.08.2014 19:18

Авторские песни, Барды (Авторская песня) Семён Слепаков - Альбом 1 (2012) [MP3, 320 kbps CBR] Бишеп
1 | 0

1 | 2052

53

11.05.2013 07:53

Авторские песни, Барды (Авторская песня, Фолк) Никола Емелин (Емеля) - Дискография (6 альбомов) (1989 - 2011) [MP3, 64-320 kbps] gregsib
14 | 0

1 | 2046

24

05.07.2013 18:48

Авторские песни, Барды (Авторская песня) Вячеслав Мясников (Уральские пельмени) - Сборник песен (2014) [MP3, 128-320 kbps CBR] terra07
1 | 0

1 | 2703

42

09.12.2015 14:37

Авторские песни, Барды (Авторская песня) Владимир Высоцкий - Спасибо, что живой. Песни из кинофильма... - и не только (2012) [MP3, 320 kbps CBR] valera87
2 | 1

0 | 1257

8

14.03.2015 16:31

Авторские песни, Барды (Lossless) (Авторская песня) Владимир Высоцкий - Grand Collection. Часть 1 / Часть 2 (2004) [FLAC (Tracks+.CUE), lossless] garry
0 | 0

1 | 1855

12

21.04.2012 07:06

# Авторские песни, Барды (Lossless) (Авторская песня) Евгений Баранник - На Прорезной (2010) [FLAC (Tracks+.CUE), lossless] garry
0 | 0

0 | 2421

1

20.02.2012 18:25


Яндекс.Метрика powered by Sphinx


В Н И М А Н И Е
Сайт не распространяет и не хранит электронные версии произведений, а лишь бесплатно и без коммерческой выгоды (не требуя взамен платы,
SMS и т.д.) предоставляет доступ к создаваемому пользователями каталогу ссылок на торрент-файлы, которые содержат только списки хеш-сумм.
Убедительная просьба с жалобами обращаться напрямую к пользователю, разместившему торрент файл.

Вверх