Loading...
Error

(Techno, Minimal) Fumiya Tanaka - You Find The Key (2016) [FLAC (Tracks+.Cue) Lossless]

Статистика раздачи
Размер:  403 MB   |    Зарегистрирован:  1 год 7 месяцев   |    Скачан:  6 раз

Полного источника не было: 13 часов

Сидов:  0  |  0 KB/s  ]   Личеров:  0  |  0 KB/s  ]

* - сиды/пиры с внешних источников

   
 
Автор Сообщение

Бишеп Пол:Муж

24-Ноя-2016 17:06

Fumiya Tanaka - You Find The Key

Жанр: Techno, Minimal
Год выпуска: 2016
Источник: CD
Производитель диска: Perlon - PERL107CD
Аудиокодек: FLAC
Тип рипа: Tracks+.CUE
Битрейт аудио: lossless
Продолжительность: 01:14:28


Треклист:
01. Munique Uncertain
02. Got To See You
03. Find The Key 2012
04. Swallowed Memory
05. The Mysterious Pocket Is Right
06. The Only Your Researching
07. Cinematicorc
08. Love Keep Mapping The Head

Код:

Exact Audio Copy V1.1 from 23. June 2015

EAC extraction logfile from 11. April 2016, 21:33

Fumiya Tanaka / You Find The Key

Used drive  : PIONEER DVD-RW  DVR-220   Adapter: 1  ID: 2

Read mode               : Secure
Utilize accurate stream : Yes
Defeat audio cache      : Yes
Make use of C2 pointers : No

Read offset correction                      : 6
Overread into Lead-In and Lead-Out          : No
Fill up missing offset samples with silence : Yes
Delete leading and trailing silent blocks   : No
Null samples used in CRC calculations       : Yes
Used interface                              : Native Win32 interface for Win NT & 2000
Gap handling                                : Appended to previous track

Used output format              : User Defined Encoder
Selected bitrate                : 896 kBit/s
Quality                         : High
Add ID3 tag                     : No
Command line compressor         : C:\Program Files (x86)\Exact Audio Copy\Flac\flac.exe
Additional command line options : -8 -V -T "ARTIST=%artist%" -T "TITLE=%title%" -T "ALBUM=%albumtitle%" -T "DATE=%year%" -T "TRACKNUMBER=%tracknr%" -T "GENRE=%genre%" -T "PERFORMER=%albuminterpret%" -T "COMPOSER=%composer%" %haslyrics%--tag-from-file=LYRICS="%lyricsfile%"%haslyrics% -T "ALBUMARTIST=%albumartist%" -T "DISCNUMBER=%cdnumber%" -T "TOTALDISCS=%totalcds%" -T "TOTALTRACKS=%numtracks%" -T "COMMENT=%comment%" %source% -o %dest%

TOC of the extracted CD

     Track |   Start  |  Length  | Start sector | End sector
    ---------------------------------------------------------
        1  |  0:00.00 | 11:55.23 |         0    |    53647   
        2  | 11:55.23 |  7:07.08 |     53648    |    85680   
        3  | 19:02.31 |  7:51.42 |     85681    |   121047   
        4  | 26:53.73 | 10:49.16 |    121048    |   169738   
        5  | 37:43.14 | 10:33.36 |    169739    |   217249   
        6  | 48:16.50 |  6:28.13 |    217250    |   246362   
        7  | 54:44.63 |  8:15.08 |    246363    |   283495   
        8  | 62:59.71 | 11:27.23 |    283496    |   335043   

Track  1

     Filename T:\MUSIC\Fumiya Tanaka - You Find The Key (2016) [CD-FLAC]\1-01. Fumiya Tanaka - Munich Uncertain.wav

     Pre-gap length  0:00:02.00

     Peak level 94.2 %
     Extraction speed 5.6 X
     Track quality 100.0 %
     Test CRC 9EA64420
     Copy CRC 9EA64420
     Track not present in AccurateRip database
     Copy OK

Track  2

     Filename T:\MUSIC\Fumiya Tanaka - You Find The Key (2016) [CD-FLAC]\1-02. Fumiya Tanaka - Got To See You.wav

     Peak level 94.5 %
     Extraction speed 6.5 X
     Track quality 100.0 %
     Test CRC 91DEC9DF
     Copy CRC 91DEC9DF
     Track not present in AccurateRip database
     Copy OK

Track  3

     Filename T:\MUSIC\Fumiya Tanaka - You Find The Key (2016) [CD-FLAC]\1-03. Fumiya Tanaka - Find The Key 2012.wav

     Peak level 94.9 %
     Extraction speed 7.2 X
     Track quality 100.0 %
     Test CRC 4CD524B8
     Copy CRC 4CD524B8
     Track not present in AccurateRip database
     Copy OK

Track  4

     Filename T:\MUSIC\Fumiya Tanaka - You Find The Key (2016) [CD-FLAC]\1-04. Fumiya Tanaka - Swallowed Memory.wav

     Peak level 97.7 %
     Extraction speed 8.1 X
     Track quality 100.0 %
     Test CRC FE99FD26
     Copy CRC FE99FD26
     Track not present in AccurateRip database
     Copy OK

Track  5

     Filename T:\MUSIC\Fumiya Tanaka - You Find The Key (2016) [CD-FLAC]\1-05. Fumiya Tanaka - The Mysterious Pocket Is Right.wav

     Peak level 96.8 %
     Extraction speed 8.8 X
     Track quality 100.0 %
     Test CRC EA34BD1A
     Copy CRC EA34BD1A
     Track not present in AccurateRip database
     Copy OK

Track  6

     Filename T:\MUSIC\Fumiya Tanaka - You Find The Key (2016) [CD-FLAC]\1-06. Fumiya Tanaka - The Only Your Researching.wav

     Peak level 95.7 %
     Extraction speed 9.1 X
     Track quality 100.0 %
     Test CRC D0C692A1
     Copy CRC D0C692A1
     Track not present in AccurateRip database
     Copy OK

Track  7

     Filename T:\MUSIC\Fumiya Tanaka - You Find The Key (2016) [CD-FLAC]\1-07. Fumiya Tanaka - Cinematicorc.wav

     Peak level 95.9 %
     Extraction speed 9.7 X
     Track quality 100.0 %
     Test CRC E0371C5D
     Copy CRC E0371C5D
     Track not present in AccurateRip database
     Copy OK

Track  8

     Filename T:\MUSIC\Fumiya Tanaka - You Find The Key (2016) [CD-FLAC]\1-08. Fumiya Tanaka - Love Keep Mapping The Head.wav

     Peak level 95.7 %
     Extraction speed 10.5 X
     Track quality 100.0 %
     Test CRC 0B9A9E7D
     Copy CRC 0B9A9E7D
     Track not present in AccurateRip database
     Copy OK

None of the tracks are present in the AccurateRip database

No errors occurred

End of status report

---- CUETools DB Plugin V2.1.6

[CTDB TOCID: _eH5r01UayHVfRYxzW_VnRsyH9E-] found
Submit result: _eH5r01UayHVfRYxzW_VnRsyH9E- has been confirmed
Track | CTDB Status
  1   | (1/1) Accurately ripped
  2   | (1/1) Accurately ripped
  3   | (1/1) Accurately ripped
  4   | (1/1) Accurately ripped
  5   | (1/1) Accurately ripped
  6   | (1/1) Accurately ripped
  7   | (1/1) Accurately ripped
  8   | (1/1) Accurately ripped

==== Log checksum 56885A59CABB168B485A541F2684923965FE60C8D9E09B3749294DD530B82484 ====

Код:

REM GENRE "Tech House"
REM DATE 2016
REM DISCID 78117308
REM COMMENT "ExactAudioCopy v1.1"
PERFORMER "Fumiya Tanaka"
TITLE "You Find The Key"
FILE "1-01. Fumiya Tanaka - Munich Uncertain.wav" WAVE
  TRACK 01 AUDIO
    TITLE "Munich Uncertain"
    PERFORMER "Fumiya Tanaka"
    INDEX 01 00:00:00
FILE "1-02. Fumiya Tanaka - Got To See You.wav" WAVE
  TRACK 02 AUDIO
    TITLE "Got To See You"
    PERFORMER "Fumiya Tanaka"
    INDEX 01 00:00:00
FILE "1-03. Fumiya Tanaka - Find The Key 2012.wav" WAVE
  TRACK 03 AUDIO
    TITLE "Find The Key 2012"
    PERFORMER "Fumiya Tanaka"
    INDEX 01 00:00:00
FILE "1-04. Fumiya Tanaka - Swallowed Memory.wav" WAVE
  TRACK 04 AUDIO
    TITLE "Swallowed Memory"
    PERFORMER "Fumiya Tanaka"
    INDEX 01 00:00:00
FILE "1-05. Fumiya Tanaka - The Mysterious Pocket Is Right.wav" WAVE
  TRACK 05 AUDIO
    TITLE "The Mysterious Pocket Is Right"
    PERFORMER "Fumiya Tanaka"
    INDEX 01 00:00:00
FILE "1-06. Fumiya Tanaka - The Only Your Researching.wav" WAVE
  TRACK 06 AUDIO
    TITLE "The Only Your Researching"
    PERFORMER "Fumiya Tanaka"
    INDEX 01 00:00:00
FILE "1-07. Fumiya Tanaka - Cinematicorc.wav" WAVE
  TRACK 07 AUDIO
    TITLE "Cinematicorc"
    PERFORMER "Fumiya Tanaka"
    INDEX 01 00:00:00
FILE "1-08. Fumiya Tanaka - Love Keep Mapping The Head.wav" WAVE
  TRACK 08 AUDIO
    TITLE "Love Keep Mapping The Head"
    PERFORMER "Fumiya Tanaka"
    INDEX 01 00:00:00

Этот торрент недоступен для скачивания без регистрации, однако доступен по публичной magnet-ссылке (источники с публичных трекеров). Перед использованием ссылки прочтите, пожалуйста Пользовательское соглашение, а также как можно дольше оставайтесь на раздаче! Для того, чтобы скачать сам торрент-файл (который видит больше источников), а также для того, чтобы поблагодарить релизера, вам необходимо зарегистрироваться. Если регистрироваться лень - вы можете также попробовать скачать релиз по нашим партнерским ссылкам ниже. Кроме того, зарегистрированным пользователям не показывается всплывающая реклама при скачивании.

[underverse.su].t74342.torrent
Трекер: Зарегистрирован   [ 24.11.2016 17:06 ]  

Статус: проверено (by Бишеп at 24.11.2016 17:06)
Поблагодарили: 1 человек
Тип торрента: публичный - доступные источники с открытых трекеров: 
Размер: 403 MB (занимает 0,09 DVDR, для записи нужно 1 болванка DVDR/RW)
 
 
Похожие темы
Форум Тема Автор Торрент Отв. Посл. сооб.
Techno (Techno, Minimal Techno) Sek70R - Plague (2016) [MP3, 320 kbps] ANDRAKO
2 | 0

0 | 373

0

09.11.2016 14:09

Techno (Techno, Minimal Techno, Industrial) Bookworms (Nik Dawson) - Xenophobe (2016) [MP3, 320 kbps] ANDRAKO
1 | 0

0 | 369

1

09.11.2016 13:54

Techno (Techno, Minimal Techno) Elay Lazutkin - Evil (2016) [MP3, 320 kbps] ANDRAKO
2 | 1

0 | 371

2

09.11.2016 13:42

Techno (Techno, Minimal Techno) Maurice Giovannini - Musique (2016) [MP3, 320 kbps] ANDRAKO
3 | 0

0 | 463

2

05.11.2016 15:41

Techno (Techno, Minimal, Ambient, Electronic) Pantha Du Prince - The Triad (2016) [MP3, 320 kbps] ANDRAKO
5 | 2

0 | 859

3

09.12.2016 17:18

Techno (Techno, Minimal) Rafal Kulik - Minimalistic Two (2017) [MP3, 320 kbps CBR] Darkferse
3 | 0

0 | 575

2

15.04.2017 19:11

Techno (Techno, Minimal Techno) Gaiser - III (2017) [MP3, 320 kbps CBR] Darkferse
5 | 0

0 | 594

2

19.05.2017 14:22

Techno (Techno, Minimal Techno, Ambient) Pantha Du Prince - The Triad (Ambient Versions & Remixes) (2017) [MP3, 320 kbps CBR] Darkferse
9 | 0

0 | 556

1

11.06.2017 00:35

Techno (Techno, Modern Classical, Ambient) Carl Craig - Versus (2017) [MP3, 320 kbps CBR] Darkferse
18 | 0

0 | 514

4

11.06.2017 00:54

Сборники (Techno, Minimal Techno, Tech House) VA - Extra Ordinary Vol.1 (2012) [MP3, 320 kbps] ANDRAKO
1 | 0

0 | 395

1

24.11.2016 08:57


Яндекс.Метрика powered by Sphinx


В Н И М А Н И Е
Сайт не распространяет и не хранит электронные версии произведений, а лишь бесплатно и без коммерческой выгоды (не требуя взамен платы,
SMS и т.д.) предоставляет доступ к создаваемому пользователями каталогу ссылок на торрент-файлы, которые содержат только списки хеш-сумм.
Убедительная просьба с жалобами обращаться напрямую к пользователю, разместившему торрент файл.

Вверх