Loading...
Error

Офицер Доун / Officer Downe (Шон Крэхан) [2016 г., боевик, экшн, трэш, WEB-DLRip] VO (BadBajo) + Original

Статистика раздачи
Размер:  1,47 GB   |    Зарегистрирован:  1 год 6 месяцев   |    Скачан:  4 раза

Полного источника не было: 9 месяцев

Сидов:  0  |  0 KB/s  ]   Личеров:  0  |  0 KB/s  ]

* - сиды/пиры с внешних источников

   
 
Автор Сообщение

makkol Пол:Муж

28-Ноя-2016 21:25

Офицер Доун / Officer Downe


Год выпуска: 2016
Жанр: боевик, экшн, трэш
Производство: США [Blackmrkt, Living Out Loud Films, Man of Action, Traverse Media]
Режиссер: Шон Крэхан
В ролях: Сэм Уитвер, Лорен Луна Велес, Ким Коутс, Элисон Ломан, Линдсей Палсифер, Джозеф Джулиан Сория, Рено Уилсон, Марк Невелдайн, Тайлер Росс, Ади Шанкар
Сюжет фильма:
Он полицейский. Он закон. Он очищает улицы Лос-Анджелеса день за днем. Он выполняет свой долг, свою работу. И мешает ему только одно. Фортуна 500. Криминальная группировка, сидящая во главе всего преступного мира в городе. Но наш герой непобедим. Словно птица Феникс, наш герой избегает смерти. И имя этого героя - Торренс Дауни.

  • Мировая премьера: 1 января 2016


Качество видео: WEB-DLRip

Продолжительность: 01:30:56
Формат: AVI
Видео: XviD, 720x304 (2.35:1), 23.976 fps, 1750 kbps
Аудио #1: русский, любительский одноголосый закадровый (BadBajo), AC3 5.1, 48 kHz, 384 kbps
Аудио #2: английский, оригинал, AC3 2.0, 48 kHz, 160 kbps

Код:

Формат                                   : AVI
Формат/Информация                        : Audio Video Interleave
Размер файла                             : 1,47 Гбайт
Продолжительность                        : 1 ч. 30 м.
Общий поток                              : 2308 Кбит/сек
Программа кодирования                    : VirtualDubMod 1.5.10.3 | (build 2550/release)
Библиотека кодирования                   : VirtualDubMod build 2550/release

Видео
Идентификатор                            : 0
Формат                                   : MPEG-4 Visual
Профиль формата                          : Advanced Simple@L5
Параметр BVOP формата                    : 2
Параметр QPel формата                    : Нет
Параметр GMC формата                     : Без точки перехода
Параметр матрицы формата                 : Default (H.263)
Идентификатор кодека                     : XVID
Идентификатор кодека/Подсказка           : XviD
Продолжительность                        : 1 ч. 30 м.
Битрейт                                  : 1750 Кбит/сек
Ширина                                   : 720 пикселей
Высота                                   : 304 пикселя
Соотношение сторон                       : 2,35:1
Частота кадров                           : 23,976 (24000/1001) кадра/сек
Частота кадров в оригинале               : 23,976 (23976/1000) кадра/сек
Цветовое пространство                    : YUV
Субдискретизация насыщенности            : 4:2:0
Битовая глубина                          : 8 бит
Тип развёртки                            : Прогрессивная
Метод сжатия                             : С потерями
Бит/(Пиксели*Кадры)                      : 0.334
Размер потока                            : 1,11 Гбайт (76%)
Библиотека кодирования                   : XviD 66

Аудио #1
Идентификатор                            : 1
Формат                                   : AC-3
Формат/Информация                        : Audio Coding 3
Расширение режима                        : CM (complete main)
Параметр Endianness формата              : Big
Идентификатор кодека                     : 2000
Продолжительность                        : 1 ч. 30 м.
Вид битрейта                             : Постоянный
Битрейт                                  : 384 Кбит/сек
Каналы                                   : 6 каналов
Расположение каналов                     : Front: L C R, Side: L R, LFE
Частота                                  : 48,0 КГц
Частота кадров                           : 31,250 кадров/сек (1536 spf)
Битовая глубина                          : 16 бит
Метод сжатия                             : С потерями
Размер потока                            : 250 Мбайт (17%)
Выравнивание                             : Разделение по промежуткам
Продолжительность промежутка             : 42  мс. (1,00 видеокадр)
Время предзагрузки промежутка            : 500  мс.

Аудио #2
Идентификатор                            : 2
Формат                                   : AC-3
Формат/Информация                        : Audio Coding 3
Расширение режима                        : CM (complete main)
Параметр Endianness формата              : Big
Идентификатор кодека                     : 2000
Продолжительность                        : 1 ч. 30 м.
Вид битрейта                             : Постоянный
Битрейт                                  : 160 Кбит/сек
Каналы                                   : 2 канала
Расположение каналов                     : Front: L R
Частота                                  : 48,0 КГц
Частота кадров                           : 31,250 кадров/сек (1536 spf)
Битовая глубина                          : 16 бит
Метод сжатия                             : С потерями
Размер потока                            : 104 Мбайт (7%)
Выравнивание                             : Разделение по промежуткам
Продолжительность промежутка             : 42  мс. (1,00 видеокадр)
Время предзагрузки промежутка            : 500  мс.


picpicpicpicpic
Для увеличения картинки щелкните мышкой по превью

Этот торрент недоступен для скачивания без регистрации, однако доступен по публичной magnet-ссылке (источники с публичных трекеров). Перед использованием ссылки прочтите, пожалуйста Пользовательское соглашение, а также как можно дольше оставайтесь на раздаче! Для того, чтобы скачать сам торрент-файл (который видит больше источников), а также для того, чтобы поблагодарить релизера, вам необходимо зарегистрироваться. Если регистрироваться лень - вы можете также попробовать скачать релиз по нашим партнерским ссылкам ниже. Кроме того, зарегистрированным пользователям не показывается всплывающая реклама при скачивании.

[underverse.su].t74586.torrent
Трекер: Зарегистрирован   [ 28.11.2016 21:25 ]  

Статус: проверено (by Паукан at 01.12.2016 04:10)
Поблагодарили: пока никто не поблагодарил...
Тип торрента: публичный - доступные источники с открытых трекеров: 
Размер: 1,47 GB (занимает 0,33 DVDR, для записи нужно 1 болванка DVDR/RW)
 
 
Похожие темы
Форум Тема Автор Торрент Отв. Посл. сооб.
T Зарубежное кино [DVDRip, Low-Res HDRip, и т.д.] Офицер Доун / Officer Downe (Шон Крэхан / Shawn Crahan) [2016 г., боевик, HDRip] MVO (Колобок) 90ytr90
1 | 0

0 | 445

6

03.03.2017 20:35

T Зарубежное кино [HDDVDRip / BDRip / WEB-DL / HDTV 1080/720р] Офицер Доун / Officer Downe (Шон Крэхан / Shawn Crahan) [2016 г., боевик, WEB-DL 1080p] VO (BadBajo) + Original (Eng) + Sub (Eng) 90ytr90
1 | 0

0 | 464

2

29.11.2016 15:22

* Зарубежное кино [HDDVDRip / BDRip / WEB-DL / HDTV 1080/720р] Офицер Доун / Officer Downe (Шон Крэхан / Shawn Crahan) [2016 г., боевик, BDRip 720p] MVO (Колобок) 90ytr90
1 | 0

0 | 269

2

03.03.2017 20:31

Архив (зарубежное кино высокого качества) Офицер Доун / Officer Downe (Шон Крэхан) [2016 г., боевик, экшн, трэш, WEB-DL 720p] VO (BadBajo) + Original makkol
0 | 0

1 | 248

5

31.01.2018 17:24

* Архив (зарубежное кино высокого качества) Офицер Доун / Officer Downe (Шон Крэхан / Shawn Crahan) [2016 г., боевик, BDRip 1080p] MVO (Колобок) 90ytr90
0 | 0

1 | 267

0

31.01.2018 18:38


Яндекс.Метрика powered by Sphinx


В Н И М А Н И Е
Сайт не распространяет и не хранит электронные версии произведений, а лишь бесплатно и без коммерческой выгоды (не требуя взамен платы,
SMS и т.д.) предоставляет доступ к создаваемому пользователями каталогу ссылок на торрент-файлы, которые содержат только списки хеш-сумм.
Убедительная просьба с жалобами обращаться напрямую к пользователю, разместившему торрент файл.

Вверх