Loading...
Error

Дом странных детей Мисс Перегрин / Miss Peregrine's Home for Peculiar Children (Тим Бёртон) [2016 г., фэнтези, приключения, HDRip] Dub

Статистика раздачи
Размер:  2,05 GB   |    Зарегистрирован:  1 год 6 месяцев   |    Скачан:  27 раз

Полного источника не было: 14 часов

Сидов:  0  |  0 KB/s  ]   Личеров:  0  |  0 KB/s  ]

* - сиды/пиры с внешних источников

   
 
Автор Сообщение

makkol Пол:Муж

04-Дек-2016 10:04

Дом странных детей Мисс Перегрин
Miss Peregrine's Home for Peculiar Children


Год выпуска: 2016
Жанр: фэнтези, приключения
Производство: Великобритания , Бельгия , США [20th Century Fox Film Corporation, Chernin Entertainment]
Режиссер: Тим Бёртон
В ролях: Ева Грин, Эйса Баттерфилд, Сэмюэл Л. Джексон, Джуди Денч, Руперт Эверетт, Эллисон Дженни, Крис О’Дауд, Теренс Стэмп
Сюжет фильма:
Детство Джейкоба прошло под рассказы дедушки о приюте для необычных детей. Среди его обитателей девочка, которая умела держать в руках огонь, девочка, чьи ноги не касались земли, невидимый мальчик и близнецы, умевшие общаться без слов. Когда дедушка умирает, 16-летний Джейкоб получает загадочное письмо и отправляется на остров, где вырос его дед. Там он находит детей, которых раньше видел только на фотографиях...

  • Мировая премьера: 25 сентября 2016
  • Российская премьера: 6 октября 2016


Качество видео: HDRip

Продолжительность: 02:06:55
Формат: AVI
Видео: XviD, 720x384 (1.85:1), 23.976 fps, 1856 kbps
Аудио: русский, дублированный (лицензия, BD CEE), AC3 5.1, 48 kHz, 448 kbps

Код:

Формат                                   : AVI
Формат/Информация                        : Audio Video Interleave
Профиль формата                          : OpenDML
Размер файла                             : 2,05 Гбайт
Продолжительность                        : 2 ч. 6 м.
Общий поток                              : 2316 Кбит/сек
Программа кодирования                    : VirtualDubMod 1.5.10.2 (build 2540/release)
Библиотека кодирования                   : VirtualDubMod build 2540/release

Видео
Идентификатор                            : 0
Формат                                   : MPEG-4 Visual
Профиль формата                          : Advanced Simple@L5
Параметр BVOP формата                    : 2
Параметр QPel формата                    : Нет
Параметр GMC формата                     : Без точки перехода
Параметр матрицы формата                 : Выборочная
Идентификатор кодека                     : XVID
Идентификатор кодека/Подсказка           : XviD
Продолжительность                        : 2 ч. 6 м.
Битрейт                                  : 1856 Кбит/сек
Ширина                                   : 720 пикселей
Высота                                   : 384 пикселя
Соотношение сторон                       : 1,85:1
Частота кадров                           : 23,976 (24000/1001) кадра/сек
Цветовое пространство                    : YUV
Субдискретизация насыщенности            : 4:2:0
Битовая глубина                          : 8 бит
Тип развёртки                            : Прогрессивная
Метод сжатия                             : С потерями
Бит/(Пиксели*Кадры)                      : 0.280
Размер потока                            : 1,65 Гбайт (80%)
Библиотека кодирования                   : XviD 1.2.1 (UTC 2008-12-04)

Аудио
Идентификатор                            : 1
Формат                                   : AC-3
Формат/Информация                        : Audio Coding 3
Расширение режима                        : CM (complete main)
Параметр Endianness формата              : Big
Идентификатор кодека                     : 2000
Продолжительность                        : 2 ч. 6 м.
Вид битрейта                             : Постоянный
Битрейт                                  : 448 Кбит/сек
Каналы                                   : 6 каналов
Расположение каналов                     : Front: L C R, Side: L R, LFE
Частота                                  : 48,0 КГц
Частота кадров                           : 31,250 кадров/сек (1536 spf)
Метод сжатия                             : С потерями
Размер потока                            : 407 Мбайт (19%)
Выравнивание                             : Разделение по промежуткам
Продолжительность промежутка             : 42  мс. (1,00 видеокадр)
Время предзагрузки промежутка            : 500  мс.
picpicpicpicpic
Для увеличения картинки щелкните мышкой по превью

Этот торрент недоступен для скачивания без регистрации, однако доступен по публичной magnet-ссылке (источники с публичных трекеров). Перед использованием ссылки прочтите, пожалуйста Пользовательское соглашение, а также как можно дольше оставайтесь на раздаче! Для того, чтобы скачать сам торрент-файл (который видит больше источников), а также для того, чтобы поблагодарить релизера, вам необходимо зарегистрироваться. Если регистрироваться лень - вы можете также попробовать скачать релиз по нашим партнерским ссылкам ниже. Кроме того, зарегистрированным пользователям не показывается всплывающая реклама при скачивании.

[underverse.su].t74859.torrent
Трекер: Зарегистрирован   [ 04.12.2016 10:04 ]  

Статус: проверено (by makkol at 04.12.2016 10:16)
Поблагодарили: 2 человека
Тип торрента: публичный - доступные источники с открытых трекеров: 
Размер: 2,05 GB (занимает 0,47 DVDR, для записи нужно 1 болванка DVDR/RW)
 
 
Похожие темы
Форум Тема Автор Торрент Отв. Посл. сооб.
# Зарубежное кино [DVDRip, Low-Res HDRip, и т.д.] Дом странных детей Мисс Перегрин / Miss Peregrine's Home for Peculiar Children (Тим Бёртон / Tim Burton) [2016 г., фэнтези, приключения, HDRip] Dub 90ytr90
29 | 3

0 | 878

10

07.12.2016 18:28

Зарубежное кино [DVDRip, Low-Res HDRip, и т.д.] Дом странных детей Мисс Перегрин / Miss Peregrine's Home for Peculiar Children (Тим Бёртон / Tim Burton) [2016 г., фэнтези, приключения, BDRip-AVC] Dub + Sub (Rus) 90ytr90
95 | 3

0 | 1365

29

07.12.2016 18:00

Зарубежное кино [DVDRip, Low-Res HDRip, и т.д.] Дом странных детей Мисс Перегрин / Miss Peregrine's Home for Peculiar Children (Тим Бёртон) [2016 г., фэнтези, приключения, HDRip] Dub makkol
19 | 0

0 | 1223

23

04.12.2016 09:50

* Зарубежное кино [DVD / HDDVD / BD / Remux] Дом странных детей Мисс Перегрин / Miss Peregrine's Home for Peculiar Children (Тим Бёртон / Tim Burton) [2016 г., фэнтези, приключения, BD EUR 1080p] Dub 90ytr90
3 | 5

0 | 126

0

05.03.2018 18:02

* Зарубежное кино [DVD / HDDVD / BD / Remux] Дом странных детей Мисс Перегрин / Miss Peregrine's Home for Peculiar Children (Тим Бёртон / Tim Burton) [2016 г., фэнтези, приключения, BDRemux 1080p] 2xDub (Rus, Ukr) + 2xAVO + Original (Eng) +... 90ytr90
2 | 1

0 | 120

0

05.03.2018 18:04

* Зарубежное кино [DVD / HDDVD / BD / Remux] Дом странных детей Мисс Перегрин / Miss Peregrine's Home for Peculiar Children (Тим Бёртон / Tim Burton) [2016 г., фэнтези, приключения, BDRemux 1080p] 2xDub (Rus, Ukr) + Original (Eng) + Sub (Rus,... 90ytr90
3 | 3

0 | 169

2

05.03.2018 18:18

Зарубежное кино [HDDVDRip / BDRip / WEB-DL / HDTV 1080/720р] Дом странных детей Мисс Перегрин / Miss Peregrine's Home for Peculiar Children (Тим Бёртон / Tim Burton) [2016 г., фэнтези, приключения, BDRip 1080p] Dub + Original (Eng) + Sub (Rus, Ukr, Eng) 90ytr90
61 | 0

0 | 1527

22

07.12.2016 18:18

Зарубежное кино [HDDVDRip / BDRip / WEB-DL / HDTV 1080/720р] Дом странных детей Мисс Перегрин / Miss Peregrine's Home for Peculiar Children (Тим Бёртон / Tim Burton) [2016 г., фэнтези, приключения, BDRip 720p] Dub + Original (Eng) + Sub (Eng) 90ytr90
26 | 10

0 | 1444

13

04.12.2016 12:29

Зарубежное кино [HDDVDRip / BDRip / WEB-DL / HDTV 1080/720р] Дом странных детей Мисс Перегрин / Miss Peregrine's Home for Peculiar Children (Тим Бёртон) [2016 г., фэнтези, приключения, BDRip 720p] Dub + Original makkol
17 | 0

0 | 1265

23

04.12.2016 10:11

Зарубежное кино [HDDVDRip / BDRip / WEB-DL / HDTV 1080/720р] Дом странных детей Мисс Перегрин / Miss Peregrine's Home for Peculiar Children (Тим Бёртон) [2016 г., фэнтези, приключения, BDRip 1080p] Dub + Original makkol
2 | 0

0 | 1238

17

04.12.2016 09:56


Яндекс.Метрика powered by Sphinx


В Н И М А Н И Е
Сайт не распространяет и не хранит электронные версии произведений, а лишь бесплатно и без коммерческой выгоды (не требуя взамен платы,
SMS и т.д.) предоставляет доступ к создаваемому пользователями каталогу ссылок на торрент-файлы, которые содержат только списки хеш-сумм.
Убедительная просьба с жалобами обращаться напрямую к пользователю, разместившему торрент файл.

Вверх