Loading...
Error

Все дети Господа / Все дети Бога / Toti copiii domnului / All Gods Children (Адриан Попович) [2012 г., драма, HDRip-AVC] DVO (Levelin) + Original

Статистика раздачи
Размер:  1,25 GB   |    Зарегистрирован:  1 год 6 месяцев   |    Скачан:  1 раз

Полного источника не было: 5 часов

Сидов:  0  |  0 KB/s  ]   Личеров:  0  |  0 KB/s  ]

* - сиды/пиры с внешних источников

   
 
Автор Сообщение

makkol Пол:Муж

04-Дек-2016 15:00

Все дети Господа / Все дети Бога
Toti copiii domnului / All Gods Children


Год выпуска: 2012
Жанр: драма
Производство: Молдова , Румыния [Artis Film, Diametral Film, Moldova Film]
Режиссер: Адриан Попович
В ролях: Джони Алич, Лилия Беджан, Ион Берегой, Вэс Блэквуд, Эмерджиан Казак, Анатол Дурбалэ, Аркел Иоселиани, Майкл Айронсайд, Алексей Мосевнин, Ина Сурду, Родика Оанта
Сюжет фильма:
Первый в истории Молдовы фильм, номинированный страной на премию «Оскар». Сюжет сосредоточен на драме 9-летнего ребёнка Пэвэлаша, который ищет свою мать, уехавшую за границу, а она, после возвращения домой, пытается продать сына семье из Канады.

Описание с кинопоиска:
Главный герой фильма Пэвэлаш, ищет свою маму, которая пропала несколько лет назад. Отец умер, а мать, Ирина, находится в руках международной бандитской группировки, которая вынуждает её заниматься проституцией. Ирине удаётся вернуться на родину, в Молдову. Она планирует отдать Пэвэлаша на усыновление, за хорошее вознаграждение. А на деньги, вырученные за сына, попытаться откупиться от бандитов. И уже потом, найти Пэвэлаша и забрать его обратно.
Но, вернувшись в родную деревню, она находит только разрушенный родительский дом, узнаёт что родители умерли, а Пэвэлаш отправлен в школу-интернат. Ирина находит сына. Но, их также находят бандиты, которые дают Ирине короткий срок для того, чтоб вернуть долг с процентами. Иначе они заберут себе ребёнка. Единственное спасение - это семья из Канады, которая хочет усыновить Пэвэлаша. Но ребёнок узнаёт о намерениях мамы и сбегает…

  • Мировая премьера: 19 октября 2012


Качество видео: HDRip-AVC

Продолжительность: 01:44:50
Формат: MKV
Видео: MPEG-4 AVC, 720x404 (16:9), 24.000 fps, 1283 kbps
Аудио #1: русский, любительский двухголосый закадровый (Levelin), AC3 2.0, 48 kHz, 192 kbps
Аудио #2: оригинал, AC3 2.0, 48 kHz, 192 kbps (румынский, русский, английский, итальянский языки)

Код:

Формат                                   : Matroska
Версия формата                           : Version 4 / Version 2
Размер файла                             : 1,25 Гбайт
Продолжительность                        : 1 ч. 44 м.
Общий поток                              : 1701 Кбит/сек
Дата кодирования                         : UTC 2016-12-04 08:39:20
Программа кодирования                    : mkvmerge v9.4.2 ('So High') 64bit
Библиотека кодирования                   : libebml v1.3.4 + libmatroska v1.4.5
DURATION                                 : 01:44:49.984000000
NUMBER_OF_FRAMES                         : 196562
NUMBER_OF_BYTES                          : 150959616
_STATISTICS_WRITING_APP                  : mkvmerge v9.4.2 ('So High') 64bit
_STATISTICS_WRITING_DATE_UTC             : 2016-12-04 08:39:20
_STATISTICS_TAGS                         : BPS DURATION NUMBER_OF_FRAMES NUMBER_OF_BYTES

Видео
Идентификатор                            : 1
Формат                                   : AVC
Формат/Информация                        : Advanced Video Codec
Профиль формата                          : High@L3.1
Параметр CABAC формата                   : Да
Параметр ReFrames формата                : 5 кадров
Идентификатор кодека                     : V_MPEG4/ISO/AVC
Продолжительность                        : 1 ч. 44 м.
Битрейт                                  : 1283 Кбит/сек
Ширина                                   : 720 пикселей
Высота                                   : 404 пикселя
Соотношение сторон                       : 16:9
Режим частоты кадров                     : Постоянный
Частота кадров                           : 24,000 кадра/сек
Цветовое пространство                    : YUV
Субдискретизация насыщенности            : 4:2:0
Битовая глубина                          : 8 бит
Тип развёртки                            : Прогрессивная
Бит/(Пиксели*Кадры)                      : 0.184
Размер потока                            : 962 Мбайт (75%)
Библиотека кодирования                   : x264 core 148 r2721 72d53ab
Настройки программы                      : cabac=1 / ref=5 / deblock=1:-3:-3 / analyse=0x3:0x133 / me=tesa / subme=11 / psy=1 / psy_rd=1.10:0.10 / mixed_ref=1 / me_range=24 / chroma_me=1 / trellis=2 / 8x8dct=1 / cqm=0 / deadzone=21,11 / fast_pskip=0 / chroma_qp_offset=-3 / threads=18 / lookahead_threads=3 / sliced_threads=0 / nr=0 / decimate=1 / interlaced=0 / bluray_compat=0 / constrained_intra=0 / bframes=16 / b_pyramid=2 / b_adapt=2 / b_bias=0 / direct=3 / weightb=1 / open_gop=0 / weightp=2 / keyint=240 / keyint_min=24 / scenecut=40 / intra_refresh=0 / rc_lookahead=60 / rc=crf / mbtree=1 / crf=19.0 / qcomp=0.60 / qpmin=0 / qpmax=69 / qpstep=4 / vbv_maxrate=17500 / vbv_bufsize=17500 / crf_max=0.0 / nal_hrd=none / filler=0 / ip_ratio=1.40 / aq=1:0.60
Default                                  : Да
Forced                                   : Нет
Цветовой диапазон                        : Limited
Коэффициенты матрицы                     : BT.709
DURATION                                 : 01:44:50.000000000
NUMBER_OF_FRAMES                         : 150960
NUMBER_OF_BYTES                          : 1033608617
_STATISTICS_WRITING_APP                  : mkvmerge v9.4.2 ('So High') 64bit
_STATISTICS_WRITING_DATE_UTC             : 2016-12-04 08:39:20
_STATISTICS_TAGS                         : BPS DURATION NUMBER_OF_FRAMES NUMBER_OF_BYTES

Аудио #1
Идентификатор                            : 2
Формат                                   : AC-3
Формат/Информация                        : Audio Coding 3
Расширение режима                        : CM (complete main)
Параметр Endianness формата              : Big
Идентификатор кодека                     : A_AC3
Продолжительность                        : 1 ч. 44 м.
Вид битрейта                             : Постоянный
Битрейт                                  : 192 Кбит/сек
Каналы                                   : 2 канала
Расположение каналов                     : Front: L R
Частота                                  : 48,0 КГц
Метод сжатия                             : С потерями
Размер потока                            : 144 Мбайт (11%)
Язык                                     : Russian
Default                                  : Да
Forced                                   : Нет

Аудио #2
Идентификатор                            : 3
Формат                                   : AC-3
Формат/Информация                        : Audio Coding 3
Расширение режима                        : CM (complete main)
Параметр Endianness формата              : Big
Идентификатор кодека                     : A_AC3
Продолжительность                        : 1 ч. 44 м.
Вид битрейта                             : Постоянный
Битрейт                                  : 192 Кбит/сек
Каналы                                   : 2 канала
Расположение каналов                     : Front: L R
Частота                                  : 48,0 КГц
Метод сжатия                             : С потерями
Размер потока                            : 144 Мбайт (11%)
Язык                                     : rom
Default                                  : Нет
Forced                                   : Нет

Меню
00:00:00.000                             : en:Chapter 1
00:10:36.292                             : en:Chapter 2
00:19:35.792                             : en:Chapter 3
00:31:30.708                             : en:Chapter 4
00:41:12.500                             : en:Chapter 5
00:50:26.542                             : en:Chapter 6
00:59:28.292                             : en:Chapter 7
01:07:47.167                             : en:Chapter 8
01:19:10.458                             : en:Chapter 9
01:29:23.292                             : en:Chapter 10
Перевод: Наталья Чуканова
Озвучание: Ариса Лебедева и Семён Ващенко (Levelin)
picpicpicpicpic
Для увеличения картинки щелкните мышкой по превью

Этот торрент недоступен для скачивания без регистрации, однако доступен по публичной magnet-ссылке (источники с публичных трекеров). Перед использованием ссылки прочтите, пожалуйста Пользовательское соглашение, а также как можно дольше оставайтесь на раздаче! Для того, чтобы скачать сам торрент-файл (который видит больше источников), а также для того, чтобы поблагодарить релизера, вам необходимо зарегистрироваться. Если регистрироваться лень - вы можете также попробовать скачать релиз по нашим партнерским ссылкам ниже. Кроме того, зарегистрированным пользователям не показывается всплывающая реклама при скачивании.

[underverse.su].t74868.torrent
Трекер: Зарегистрирован   [ 04.12.2016 15:00 ]  

Статус: проверено (by makkol at 04.12.2016 15:01)
Поблагодарили: пока никто не поблагодарил...
Тип торрента: публичный - доступные источники с открытых трекеров: 
Размер: 1,25 GB (занимает 0,28 DVDR, для записи нужно 1 болванка DVDR/RW)
 
 
Похожие темы
Форум Тема Автор Торрент Отв. Посл. сооб.
Архив (художественные фильмы) Все дети Господа / Все дети Бога / Toti copiii domnului / All Gods Children (Адриан Попович) [2012 г., драма, TVRip] DVO (Levelin) + Original + Sub makkol
0 | 0

2 | 762

0

31.01.2018 13:47


Яндекс.Метрика powered by Sphinx


В Н И М А Н И Е
Сайт не распространяет и не хранит электронные версии произведений, а лишь бесплатно и без коммерческой выгоды (не требуя взамен платы,
SMS и т.д.) предоставляет доступ к создаваемому пользователями каталогу ссылок на торрент-файлы, которые содержат только списки хеш-сумм.
Убедительная просьба с жалобами обращаться напрямую к пользователю, разместившему торрент файл.

Вверх