Loading...
Error

Всё тайное становится явным / When the Bough Breaks (Джон Кассар) [2016 г., ужасы, триллер, драма, детектив, BD-Remux] MVO + Original + Sub

Статистика раздачи
Размер:  20,79 GB   |    Зарегистрирован:  1 год 6 месяцев   |    Скачан:  1 раз

Полного источника не было: 8 месяцев

Сидов:  0  |  0 KB/s  ]   Личеров:  0  |  0 KB/s  ]

* - сиды/пиры с внешних источников

   
 
Автор Сообщение

makkol Пол:Муж

14-Дек-2016 11:45

Всё тайное становится явным / When the Bough Breaks


Год выпуска: 2016
Жанр: ужасы, триллер, драма, детектив
Производство: США [Screen Gems, Unique Features]
Режиссер: Джон Кассар
В ролях: Моррис Честнат, Реджина Холл, Романи Малко, Майкл Кеннет Уильямс, Гленн Моршауэр, Тео Росси, Жасмин Сабино, Гиги Эрнета
Сюжет фильма:
Суррогатная мать для семейной пары становится помешанной на будущем отце ребёнка...

  • Мировая премьера: 9 сентября 2016


Качество видео: BD-Remux

Продолжительность: 01:46:51
Формат: MKV
Видео: MPEG-4 AVC, 1920x1080 (16:9), 23.976 fps, 24.9 Mbps
Аудио #1: русский, профессиональный многоголосый закадровый (лицензия), AC3 5.1, 48 kHz, 640 kbps
Аудио #2: английский, оригинал, DTS MA / Core 5.1, 48 kHz, 2048 Kbps / 1 510 Kbps
Аудио #3: английский, комментарии, AC3 2.0, 48 kHz, 192 kbps
Субтитры: русские, английские вшитые отключаемые

Код:

Format                      : Matroska
Format version              : Version 4 / Version 2
File size                   : 20.8 GiB
Duration                    : 1 h 46 min
Overall bit rate mode       : Variable
Overall bit rate            : 27.9 Mb/s
Encoded date                : UTC 2016-12-14 07:40:36
Writing application         : mkvmerge v9.6.0 ('Slave To Your Mind') 64bit
Writing library             : libebml v1.3.4 + libmatroska v1.4.5

Video
ID                          : 1
Format                      : AVC
Format/Info                 : Advanced Video Codec
Format profile              : High@L4.1
Format settings, CABAC      : Yes
Format settings, ReFrames   : 2 frames
Format settings, GOP        : M=1, N=10
Codec ID                    : V_MPEG4/ISO/AVC
Duration                    : 1 h 46 min
Bit rate mode               : Variable
Bit rate                    : 24.9 Mb/s
Width                       : 1 920 pixels
Height                      : 1 080 pixels
Display aspect ratio        : 16:9
Frame rate mode             : Constant
Frame rate                  : 23.976 (24000/1001) FPS
Color space                 : YUV
Chroma subsampling          : 4:2:0
Bit depth                   : 8 bits
Scan type                   : Progressive
Bits/(Pixel*Frame)          : 0.501
Stream size                 : 18.6 GiB (89%)
Title                       : NNMCLUB
Language                    : English
Default                     : Yes
Forced                      : No

Audio #1
ID                          : 2
Format                      : AC-3
Format/Info                 : Audio Coding 3
Mode extension              : CM (complete main)
Format settings, Endianness : Big
Codec ID                    : A_AC3
Duration                    : 1 h 46 min
Bit rate mode               : Constant
Bit rate                    : 640 kb/s
Channel(s)                  : 6 channels
Channel positions           : Front: L C R, Side: L R, LFE
Sampling rate               : 48.0 kHz
Frame rate                  : 31.250 FPS (1536 spf)
Compression mode            : Lossy
Stream size                 : 489 MiB (2%)
Language                    : Russian
Default                     : Yes
Forced                      : No

Audio #2
ID                          : 3
Format                      : DTS
Format/Info                 : Digital Theater Systems
Format profile              : MA / Core
Mode                        : 16
Format settings, Endianness : Big
Codec ID                    : A_DTS
Duration                    : 1 h 46 min
Bit rate mode               : Variable / Constant
Bit rate                    : 2 048 kb/s / 1 509 kb/s
Channel(s)                  : 6 channels
Channel positions           : Front: L C R, Side: L R, LFE
Sampling rate               : 48.0 kHz
Frame rate                  : 93.750 FPS (512 spf)
Bit depth                   : 16 bits
Compression mode            : Lossless / Lossy
Stream size                 : 1.55 GiB (7%)
Language                    : English
Default                     : No
Forced                      : No

Audio #3
ID                          : 4
Format                      : AC-3
Format/Info                 : Audio Coding 3
Format profile              : Dolby Digital
Mode extension              : CM (complete main)
Format settings, Endianness : Big
Codec ID                    : A_AC3
Duration                    : 1 h 46 min
Bit rate mode               : Constant
Bit rate                    : 192 kb/s
Channel(s)                  : 2 channels
Channel positions           : Front: L R
Sampling rate               : 48.0 kHz
Frame rate                  : 31.250 FPS (1536 spf)
Compression mode            : Lossy
Stream size                 : 147 MiB (1%)
Title                       : Commentary
Language                    : English
Default                     : No
Forced                      : No

Text #1
ID                          : 5
Format                      : PGS
Muxing mode                 : zlib
Codec ID                    : S_HDMV/PGS
Codec ID/Info               : Picture based subtitle format used on BDs/HD-DVDs
Duration                    : 1 h 42 min
Bit rate                    : 10.6 kb/s
Count of elements           : 2190
Stream size                 : 7.75 MiB (0%)
Language                    : Russian
Default                     : No
Forced                      : No

Text #2
ID                          : 6
Format                      : PGS
Muxing mode                 : zlib
Codec ID                    : S_HDMV/PGS
Codec ID/Info               : Picture based subtitle format used on BDs/HD-DVDs
Duration                    : 1 h 44 min
Bit rate                    : 13.4 kb/s
Count of elements           : 2834
Stream size                 : 10.0 MiB (0%)
Language                    : English
Default                     : No
Forced                      : No

Menu
00:00:00.000                : en:00:00:00.000
00:04:09.875                : en:00:04:09.875
00:10:35.593                : en:00:10:35.593
00:17:12.031                : en:00:17:12.031
00:22:09.370                : en:00:22:09.370
00:28:51.730                : en:00:28:51.730
00:35:56.363                : en:00:35:56.363
00:42:13.531                : en:00:42:13.531
00:47:50.576                : en:00:47:50.576
00:54:46.533                : en:00:54:46.533
01:01:50.373                : en:01:01:50.373
01:07:14.697                : en:01:07:14.697
01:16:23.412                : en:01:16:23.412
01:25:08.437                : en:01:25:08.437
01:34:19.237                : en:01:34:19.237
01:40:26.520                : en:01:40:26.520
picpicpicpicpic
Для увеличения картинки щелкните мышкой по превью

Этот торрент недоступен для скачивания без регистрации, однако доступен по публичной magnet-ссылке (источники с публичных трекеров). Перед использованием ссылки прочтите, пожалуйста Пользовательское соглашение, а также как можно дольше оставайтесь на раздаче! Для того, чтобы скачать сам торрент-файл (который видит больше источников), а также для того, чтобы поблагодарить релизера, вам необходимо зарегистрироваться. Если регистрироваться лень - вы можете также попробовать скачать релиз по нашим партнерским ссылкам ниже. Кроме того, зарегистрированным пользователям не показывается всплывающая реклама при скачивании.

[underverse.su].t75295.torrent
Трекер: Зарегистрирован   [ 14.12.2016 11:45 ]  

Статус: проверено (by makkol at 14.12.2016 11:46)
Поблагодарили: пока никто не поблагодарил...
Тип торрента: публичный - доступные источники с открытых трекеров: 
Размер: 20,79 GB (занимает 4,75 DVDR, для записи нужно 5 болванок DVDR/RW)
 
 
Похожие темы
Форум Тема Автор Торрент Отв. Посл. сооб.
Зарубежное кино [DVDRip, Low-Res HDRip, и т.д.] Всё тайное становится явным / When the Bough Breaks (Джон Кассар / Jon Cassar) [2016 г., ужасы, триллер, драма, детектив, HDRip] MVO 90ytr90
5 | 3

0 | 650

7

14.12.2016 17:14

Зарубежное кино [DVDRip, Low-Res HDRip, и т.д.] Всё тайное становится явным / When the Bough Breaks (Джон Кассар) [2016 г., ужасы, триллер, драма, детектив, HDRip] MVO + Original makkol
5 | 4

0 | 640

4

14.12.2016 11:28

Зарубежное кино [DVDRip, Low-Res HDRip, и т.д.] Всё тайное становится явным / When the Bough Breaks (Джон Кассар) [2016 г., ужасы, триллер, драма, детектив, HDRip] MVO makkol
11 | 0

0 | 657

8

14.12.2016 11:23

Зарубежное кино [HDDVDRip / BDRip / WEB-DL / HDTV 1080/720р] Всё тайное становится явным / When the Bough Breaks (Джон Кассар) [2016 г., ужасы, триллер, драма, детектив, BDRip 720p] MVO + Original makkol
2 | 0

0 | 665

8

14.12.2016 11:35


Яндекс.Метрика powered by Sphinx


В Н И М А Н И Е
Сайт не распространяет и не хранит электронные версии произведений, а лишь бесплатно и без коммерческой выгоды (не требуя взамен платы,
SMS и т.д.) предоставляет доступ к создаваемому пользователями каталогу ссылок на торрент-файлы, которые содержат только списки хеш-сумм.
Убедительная просьба с жалобами обращаться напрямую к пользователю, разместившему торрент файл.

Вверх