Loading...
Error

Легенда о Брюсе Ли / The Legend of Bruce Lee (1-50 серии из 50) (Ли Вонги) [2008 г., Биография, боевые искусства, TVRip] VO

Статистика раздачи
Размер:  26,56 GB   |    Зарегистрирован:  1 год 7 месяцев   |    Скачан:  5 раз
Сидов:  1  |  15 KB/s  ]   Личеров:  0  |  0 KB/s  ]

* - сиды/пиры с внешних источников

   
 
Автор Сообщение

mihis Пол:Муж

16-Дек-2016 19:55

Легенда о Брюсе Ли / The Legend of Bruce Lee
50 Серий из 50
Год выпуска: 2008
Страна: Китай, CCTV (China Central Television)
Жанр: Биография, боевые искусства
Продолжительность: 50 х ~ 00:46:00
Перевод: Любительский (одноголосый) Zamez

Режиссер: Ли Вонги

В ролях: Квок-Куен Чан, Мишель Мисти Лэнг, Тед Е. Дюран, Хазен МакИнтайр, Лоюн Ванг, Наталья Дзюбло, Трэйси Энн Вульф, Ке Гай, Чжоу Чжоу, Марк Дакаскос, Гэри Дениэлс

Описание: Уникальный сериал-биография величайшего мастера боевых искусств Брюса Ли, начиная с его детства и заканчивая трагической гибелью. Китайские кинематографисты с удивительной точностью воссоздали все интерьеры и обстоятельства съемок фильмов Брюса Ли, рассказали о его семье, о его трудном пути от мальчика-ученика престижного колледжа до суперзвезды мирового кино!



Качество: TVRip
Формат: AVI
Видео кодек: XviD
Аудио кодек: MP3
Видео: 704x384 (1.83:1), 25 fps, XviD build 50, 1499 kbps avg, 0.22 bit/pixel
Аудио: 48 kHz, MPEG Layer 3, 2 ch, ~128.00 kbps avg
Общее
Полное имя : E:\Video\The Legend of Bruce Lee.2008.VO.Zamez\The Legend of Bruce Lee.s01e01.avi
Формат : AVI
Формат/Информация : Audio Video Interleave
Размер файла : 543 Мбайт
Продолжительность : 46 м.
Общий поток : 1637 Кбит/сек
Программа кодирования : VirtualDubMod 1.5.10.2 (build 2540/release)
Библиотека кодирования : VirtualDubMod build 2540/release

Видео
Идентификатор : 0
Формат : MPEG-4 Visual
Профиль формата : Advanced Simple@L5
Параметр BVOP формата : 2
Параметр QPel формата : Нет
Параметр GMC формата : Без точки перехода
Параметр матрицы формата : Default (MPEG)
Идентификатор кодека : XVID
Идентификатор кодека/Подсказка : XviD
Продолжительность : 46 м.
Битрейт : 1499 Кбит/сек
Ширина : 704 пикселя
Высота : 384 пикселя
Соотношение сторон : 1,85:1
Частота кадров : 25,000 кадров/сек
Цветовое пространство : YUV
Субдискретизация насыщенности : 4:2:0
Битовая глубина : 8 бит
Тип развёртки : Прогрессивная
Метод сжатия : С потерями
Бит/(Пиксели*Кадры) : 0.222
Размер потока : 498 Мбайт (92%)
Библиотека кодирования : XviD 1.2.1 (UTC 2008-12-04)

Аудио
Идентификатор : 1
Формат : MPEG Audio
Версия формата : Version 1
Профиль формата : Layer 3
Режим : Joint stereo
Расширение режима : MS Stereo
Идентификатор кодека : 55
Идентификатор кодека/Подсказка : MP3
Продолжительность : 46 м.
Вид битрейта : Постоянный
Битрейт : 128 Кбит/сек
Каналы : 2 канала
Частота : 48,0 КГц
Метод сжатия : С потерями
Размер потока : 42,5 Мбайт (8%)
Выравнивание : Соединение по промежуткам
Продолжительность промежутка : 40 мс. (1,00 видеокадр)
Время предзагрузки промежутка : 504 мс.

Этот торрент недоступен для скачивания без регистрации, однако доступен по публичной magnet-ссылке (источники с публичных трекеров). Перед использованием ссылки прочтите, пожалуйста Пользовательское соглашение, а также как можно дольше оставайтесь на раздаче! Для того, чтобы скачать сам торрент-файл (который видит больше источников), а также для того, чтобы поблагодарить релизера, вам необходимо зарегистрироваться. Если регистрироваться лень - вы можете также попробовать скачать релиз по нашим партнерским ссылкам ниже. Кроме того, зарегистрированным пользователям не показывается всплывающая реклама при скачивании.

[underverse.su].t75439.torrent
Трекер: Зарегистрирован   [ 16.12.2016 19:55 ]  

Статус: проверено (by makkol at 17.12.2016 10:02)
Поблагодарили: пока никто не поблагодарил...
Тип торрента: публичный - доступные источники с открытых трекеров: 
Размер: 26,56 GB (занимает 6,07 DVDR, для записи нужно 7 болванок DVDR/RW)
 
 
Похожие темы
Форум Тема Автор Торрент Отв. Посл. сооб.
Зарубежное кино [DVDRip, Low-Res HDRip, и т.д.] Легенда о вратах ада: Американский заговор / The Legend of Hell`s Gate: An American Conspiracy (Тэннер Бирд) [2011 г., боевик, приключения, вестерн, история, DVDRip] RG NewCinema
0 | 1

0 | 2003

17

13.07.2012 23:11

Зарубежное кино [DVDRip, Low-Res HDRip, и т.д.] Легенда о Красном Орле / Aguila Roja, la pelicula (Хосе Рамон Айерра) [2011 г., боевик, комедия, приключения, HDRip] MVO 90ytr90
0 | 0

0 | 1723

14

30.11.2012 17:57

T Зарубежное кино [DVDRip, Low-Res HDRip, и т.д.] Легенда о Бене Холле / The Legend of Ben Hall (Мэттью Холмс) [2016 г., боевик, драма, вестерн, биография, история, HDRip] MVO (@MUZOBOZ@) makkol
3 | 0

0 | 858

4

07.05.2017 11:24

Зарубежное кино [DVDRip, Low-Res HDRip, и т.д.] Легенда о пианисте / The Legend of 1900 / La Leggenda Del Pianista Sull'Oceano (Джузеппе Торнаторе / Giuseppe Tornatore) [1998 г., драма, мелодрама, музыка, BDRip] [Full Version] DVO + Sub (Rus, Eng) 90ytr90
2 | 0

0 | 2418

5

04.01.2014 19:13

Зарубежное кино [DVDRip, Low-Res HDRip, и т.д.] Легенда о Барни Томсоне / The Legend of Barney Thomson (Роберт Карлайл) [2015 г., комедия, криминал, DVDRip] VO makkol
0 | 0

0 | 1072

39

27.11.2015 12:57

T Зарубежное кино [DVDRip, Low-Res HDRip, и т.д.] Легенда о русалке / A Mermaid's Tale (Дастин Рикерт) [2016 г., семейный, DVDRip] MVO (Синема УС) makkol
1 | 0

0 | 794

4

03.06.2017 13:09

Наше кино [DVDRip, Low-Res HDRip, и т.д.] Легенда о Коловрате (Джаник Файзиев, Иван Шурховецкий) [2017 г., история, боевик, фэнтези, BDRip] 90ytr90
307 | 7

0 | 483

34

24.02.2018 07:12

Наше кино [DVDRip, Low-Res HDRip, и т.д.] Легенда о Коловрате (Джаник Файзиев, Иван Шурховецкий) [2017 г., история, боевик, фэнтези, BDRip] 90ytr90
18 | 0

0 | 266

5

24.02.2018 07:13

Наше кино [DVDRip, Low-Res HDRip, и т.д.] Легенда о Коловрате (Джаник Файзиев, Иван Шурховецкий) [2017 г., история, боевик, фэнтези, BDRip-AVC] Original (Rus) + Sub (Rus) 90ytr90
30 | 2

0 | 358

9

25.02.2018 09:34

Наше кино [DVDRip, Low-Res HDRip, и т.д.] Легенда о Коловрате (Джаник Файзиев, Иван Шурховецкий) [2017 г., история, боевик, фэнтези, BDRip-AVC] 90ytr90
9 | 0

0 | 344

18

25.02.2018 09:54


Яндекс.Метрика powered by Sphinx


В Н И М А Н И Е
Сайт не распространяет и не хранит электронные версии произведений, а лишь бесплатно и без коммерческой выгоды (не требуя взамен платы,
SMS и т.д.) предоставляет доступ к создаваемому пользователями каталогу ссылок на торрент-файлы, которые содержат только списки хеш-сумм.
Убедительная просьба с жалобами обращаться напрямую к пользователю, разместившему торрент файл.

Вверх