Loading...
Error

Бегущая от реальности / Complete Unknown (Джошуа Марстон) [2016 г., драма, детектив, WEB-DLRip] MVO (iTunes)

Статистика раздачи
Размер:  1,38 GB   |    Зарегистрирован:  1 год 5 месяцев   |    Скачан:  12 раз

Полного источника не было: 1 месяц 20 дней

Сидов:  0  |  0 KB/s  ]   Личеров:  0  |  0 KB/s  ]

* - сиды/пиры с внешних источников

   
 
Автор Сообщение

makkol Пол:Муж

25-Дек-2016 22:21

Бегущая от реальности / Complete Unknown
«Загадочная история совершенно непредсказуемой женщины»


Год выпуска: 2016
Жанр: драма, детектив
Производство: США [Great Point Media, Heron Television, Parts and Labor]
Режиссер: Джошуа Марстон
В ролях: Рэйчел Вайз, Майкл Шеннон, Кэти Бэйтс, Дэнни Гловер, Кондола Рашад, Майкл Чернус, Эрин Майя Дарк, Гензель Тан, ФаТай, Зэк Аппельман
Сюжет фильма:
Во время ужина в день своего рождения Том встречает среди гостей загадочную девушку по имени Элис. Том убежден, что они были знакомы и более чем близки, но таинственная гостья не признается и представляется совершенно другим человеком. Когда Элис сбегает, Том следует за ней, бросается в неизвестность. Вместе они становятся абсолютно свободными, анонимными, теряются в толпе мегаполиса. Эта полная приключений ночь — их шанс изменить жизнь…

  • Мировая премьера: 25 января 2016
  • Российская премьера: 17 ноября 2016


Качество видео: WEB-DLRip

Продолжительность: 01:31:51
Формат: AVI
Видео: XviD, 720x304 (2.35:1), 23.976 fps, 1752 kbps
Аудио: русский, профессиональный многоголосый закадровый (iTunes), AC3 5.1, 48 kHz, 384 kbps

Код:

Формат : AVI
Формат/Информация : Audio Video Interleave
Размер файла : 1,38 Гбайт
Продолжительность : 1 ч. 31 м.
Общий поток : 2146 Кбит/сек
Программа кодирования : VirtualDubMod 1.5.10.2 (build 2540/release)
Библиотека кодирования : VirtualDubMod build 2540/release

Видео
Идентификатор : 0
Формат : MPEG-4 Visual
Профиль формата : Advanced Simple@L5
Параметр BVOP формата : 2
Параметр QPel формата : Нет
Параметр GMC формата : Без точки перехода
Параметр матрицы формата : Default (H.263)
Идентификатор кодека : XVID
Идентификатор кодека/Подсказка : XviD
Продолжительность : 1 ч. 31 м.
Битрейт : 1753 Кбит/сек
Ширина : 720 пикселей
Высота : 304 пикселя
Соотношение сторон : 2,35:1
Частота кадров : 23,976 (24000/1001) кадра/сек
Цветовое пространство : YUV
Субдискретизация насыщенности : 4:2:0
Битовая глубина : 8 бит
Тип развёртки : Прогрессивная
Метод сжатия : С потерями
Бит/(Пиксели*Кадры) : 0.334
Размер потока : 1,12 Гбайт (82%)
Библиотека кодирования : XviD 1.2.1 (UTC 2008-12-04)

Аудио
Идентификатор : 1
Формат : AC-3
Формат/Информация : Audio Coding 3
Расширение режима : CM (complete main)
Параметр Endianness формата : Big
Идентификатор кодека : 2000
Продолжительность : 1 ч. 31 м.
Вид битрейта : Постоянный
Битрейт : 384 Кбит/сек
Каналы : 6 каналов
Расположение каналов : Front: L C R, Side: L R, LFE
Частота : 48,0 КГц
Частота кадров : 31,250 кадров/сек (1536 spf)
Метод сжатия : С потерями
Задержка видео : 26 мс.
Размер потока : 252 Мбайт (18%)
Выравнивание : Разделение по промежуткам
Продолжительность промежутка : 42 мс. (1,00 видеокадр)
Время предзагрузки промежутка : 500 мс.
picpicpicpicpic
Для увеличения картинки щелкните мышкой по превью

Этот торрент недоступен для скачивания без регистрации, однако доступен по публичной magnet-ссылке (источники с публичных трекеров). Перед использованием ссылки прочтите, пожалуйста Пользовательское соглашение, а также как можно дольше оставайтесь на раздаче! Для того, чтобы скачать сам торрент-файл (который видит больше источников), а также для того, чтобы поблагодарить релизера, вам необходимо зарегистрироваться. Если регистрироваться лень - вы можете также попробовать скачать релиз по нашим партнерским ссылкам ниже. Кроме того, зарегистрированным пользователям не показывается всплывающая реклама при скачивании.

[underverse.me].t76113.torrent
Трекер: Зарегистрирован   [ 25.12.2016 22:21 ]  

Статус: T временная (by makkol at 25.12.2016 22:22)
Поблагодарили: пока никто не поблагодарил...
Тип торрента: публичный - доступные источники с открытых трекеров: 
Размер: 1,38 GB (занимает 0,31 DVDR, для записи нужно 1 болванка DVDR/RW)
 
 
Похожие темы
Форум Тема Автор Торрент Отв. Посл. сооб.
T Зарубежное кино [DVDRip, Low-Res HDRip, и т.д.] Бегущая от реальности / Complete Unknown (Джошуа Марстон / Joshua Marston) [2016 г., драма, детектив, WEB-DLRip] Dub (звук с TS) 90ytr90
1 | 0

0 | 486

7

22.11.2016 18:18

T Зарубежное кино [HDDVDRip / BDRip / WEB-DL / HDTV 1080/720р] Бегущая от реальности / Complete Unknown (Джошуа Марстон) [2016 г., драма, детектив, WEB-DL 1080p] MVO (iTunes) makkol
11 | 0

0 | 638

8

25.12.2016 22:34

T Зарубежное кино [HDDVDRip / BDRip / WEB-DL / HDTV 1080/720р] Бегущая от реальности / Complete Unknown (Джошуа Марстон) [2016 г., драма, детектив, WEB-DL 720p] MVO (iTunes) makkol
1 | 0

0 | 529

8

25.12.2016 22:28

T Зарубежное кино [HDDVDRip / BDRip / WEB-DL / HDTV 1080/720р] Бегущая от реальности / Complete Unknown (Джошуа Марстон / Joshua Marston) [2016 г., драма, детектив, WEB-DL 1080p] Dub (звук с TS) 90ytr90
1 | 0

0 | 243

4

22.11.2016 18:46

T Архив (зарубежное кино высокого качества) Бегущая от реальности / Complete Unknown (Джошуа Марстон / Joshua Marston) [2016 г., драма, детектив, WEB-DL 720p] Dub (звук с TS) 90ytr90
0 | 0

1 | 241

7

31.01.2018 17:27


Яндекс.Метрика powered by Sphinx


В Н И М А Н И Е
Сайт не распространяет и не хранит электронные версии произведений, а лишь бесплатно и без коммерческой выгоды (не требуя взамен платы,
SMS и т.д.) предоставляет доступ к создаваемому пользователями каталогу ссылок на торрент-файлы, которые содержат только списки хеш-сумм.
Убедительная просьба с жалобами обращаться напрямую к пользователю, разместившему торрент файл.

Вверх