Loading...
Error

Пазманский дьявол / Bleed for This (Бен Янгер) [2016 г., драма, биография, спорт, BD-Remux] Dub (iTunes) + Original

Статистика раздачи
Размер:  28,97 GB   |    Зарегистрирован:  1 год 3 месяца   |    Скачан:  4 раза

Полного источника не было: 3 месяца 23 дня

Сидов:  0  |  0 KB/s  ]   Личеров:  0  |  0 KB/s  ]

* - сиды/пиры с внешних источников

   
 
Автор Сообщение

makkol Пол:Муж

04-Мар-2017 11:48

Пазманский дьявол / Bleed for This


Год выпуска: 2016
Жанр: драма, биография, спорт
Производство: США [Bruce Cohen Productions, Magna Entertainment]
Режиссер: Бен Янгер
В ролях: Майлз Теллер, Аарон Экхарт, Кэти Сагал, Киаран Хайндс, Тед Левайн, Джордан Гелбер, Аманда Клэйтон, Дэниэл Саули, Кристин Евангелиста, Тина Каскиани
Сюжет фильма:
Винни Пациенца — один из самых выдающихся чемпионов по боксу. Молодой, яркий, безрассудный... Его называли Пазманским дьяволом. Его карьера была на самом пике, но страшная авария в одночасье разрушила все планы. Врачи говорили, что он больше никогда не сможет ходить. Однако Винни решил вернуться на ринг во что бы то ни стало.

  • Мировая премьера: 2 сентября 2016
  • Российская премьера: 2 февраля 2017


Качество видео: BD-Remux

Продолжительность: 01:57:04
Формат: MKV
Видео: MPEG-4 AVC, 1920x1080 (16:9), 23.976 fps, 31.6 Mbps
Аудио #1: русский, дублированный (iTunes), AC3 5.1, 48 kHz, 384 kbps
Аудио #2: английский, оригинал, DTS-HD MA 5.1, 3487 kbps
Субтитры: английские вшитые отключаемые

Код:

Format : Matroska
Format version : Version 4 / Version 2
File size : 29.0 GiB
Duration : 1 h 57 min
Overall bit rate mode : Variable
Overall bit rate : 35.4 Mb/s
Encoded date : UTC 2017-03-02 01:38:59
Writing application : mkvmerge v8.3.0 ('Over the Horizon') 64bit
Writing library : libebml v1.3.1 + libmatroska v1.4.2
Cover : Yes
Attachments : cover.jpg

Video
ID : 1
Format : AVC
Format/Info : Advanced Video Codec
Format profile : High@L4.1
Format settings, CABAC : Yes
Format settings, ReFrames : 4 frames
Codec ID : V_MPEG4/ISO/AVC
Duration : 1 h 57 min
Bit rate mode : Variable
Bit rate : 31.6 Mb/s
Maximum bit rate : 35.0 Mb/s
Width : 1 920 pixels
Height : 1 080 pixels
Display aspect ratio : 16:9
Frame rate mode : Constant
Frame rate : 23.976 (24000/1001) FPS
Color space : YUV
Chroma subsampling : 4:2:0
Bit depth : 8 bits
Scan type : Progressive
Bits/(Pixel*Frame) : 0.635
Stream size : 25.8 GiB (89%)
Language : English
Default : Yes
Forced : No

Audio #1
ID : 2
Format : AC-3
Format/Info : Audio Coding 3
Mode extension : CM (complete main)
Format settings, Endianness : Big
Codec ID : A_AC3
Duration : 1 h 57 min
Bit rate mode : Constant
Bit rate : 384 kb/s
Channel(s) : 6 channels
Channel positions : Front: L C R, Side: L R, LFE
Sampling rate : 48.0 kHz
Frame rate : 31.250 FPS (1536 spf)
Bit depth : 16 bits
Compression mode : Lossy
Stream size : 321 MiB (1%)
Title : iTunes
Language : Russian
Default : Yes
Forced : No

Audio #2
ID : 3
Format : DTS
Format/Info : Digital Theater Systems
Format profile : MA / Core
Mode : 16
Format settings, Endianness : Big
Codec ID : A_DTS
Duration : 1 h 57 min
Bit rate mode : Variable / Constant
Bit rate : 3 487 kb/s / 1 509 kb/s
Channel(s) : 6 channels
Channel positions : Front: L C R, Side: L R, LFE
Sampling rate : 48.0 kHz
Frame rate : 93.750 FPS (512 spf)
Bit depth : 24 bits
Compression mode : Lossless / Lossy
Stream size : 2.85 GiB (10%)
Title : Original
Language : English
Default : No
Forced : No

Text #1
ID : 4
Format : UTF-8
Codec ID : S_TEXT/UTF8
Codec ID/Info : UTF-8 Plain Text
Duration : 1 h 51 min
Bit rate : 62 b/s
Count of elements : 1531
Stream size : 50.7 KiB (0%)
Title : Full
Language : English
Default : No
Forced : No

Text #2
ID : 5
Format : UTF-8
Codec ID : S_TEXT/UTF8
Codec ID/Info : UTF-8 Plain Text
Duration : 1 h 52 min
Bit rate : 64 b/s
Count of elements : 1681
Stream size : 53.1 KiB (0%)
Title : SDH
Language : English
Default : No
Forced : No

Text #3
ID : 6
Format : UTF-8
Codec ID : S_TEXT/UTF8
Codec ID/Info : UTF-8 Plain Text
Duration : 1 h 54 min
Bit rate : 76 b/s
Count of elements : 1682
Stream size : 64.0 KiB (0%)
Title : SDH [Colored]
Language : English
Default : No
Forced : No

Menu
00:00:00.000 : en:00:00:00.000
00:05:14.439 : en:00:05:14.439
00:10:26.918 : en:00:10:26.918
00:15:01.943 : en:00:15:01.943
00:20:58.674 : en:00:20:58.674
00:26:32.216 : en:00:26:32.216
00:33:33.511 : en:00:33:33.511
00:41:22.188 : en:00:41:22.188
00:49:25.171 : en:00:49:25.171
00:54:04.324 : en:00:54:04.324
00:58:46.690 : en:00:58:46.690
01:03:30.932 : en:01:03:30.932
01:10:14.502 : en:01:10:14.502
01:14:14.950 : en:01:14:14.950
01:20:23.986 : en:01:20:23.986
01:25:27.039 : en:01:25:27.039
01:31:45.583 : en:01:31:45.583
01:37:03.067 : en:01:37:03.067
01:44:24.425 : en:01:44:24.425
01:50:24.868 : en:01:50:24.868
Релиз:

picpicpicpicpic
Для увеличения картинки щелкните мышкой по превью

Этот торрент недоступен для скачивания без регистрации, однако доступен по публичной magnet-ссылке (источники с публичных трекеров). Перед использованием ссылки прочтите, пожалуйста Пользовательское соглашение, а также как можно дольше оставайтесь на раздаче! Для того, чтобы скачать сам торрент-файл (который видит больше источников), а также для того, чтобы поблагодарить релизера, вам необходимо зарегистрироваться. Если регистрироваться лень - вы можете также попробовать скачать релиз по нашим партнерским ссылкам ниже. Кроме того, зарегистрированным пользователям не показывается всплывающая реклама при скачивании.

[underverse.me].t79074.torrent
Трекер: Зарегистрирован   [ 04.03.2017 11:48 ]  

Статус: © запрещена на территории РФ (by Паукан at 14.03.2017 22:20)
Поблагодарили: пока никто не поблагодарил...
Тип торрента: публичный - доступные источники с открытых трекеров: 
Размер: 28,97 GB (занимает 6,62 DVDR, для записи нужно 7 болванок DVDR/RW)
 
 
Похожие темы
Форум Тема Автор Торрент Отв. Посл. сооб.
© Зарубежное кино [DVDRip, Low-Res HDRip, и т.д.] Пазманский дьявол / Bleed for This (Бен Янгер) [2016 г., драма, биография, спорт, BDRip] Dub (iTunes) makkol
15 | 0
1,41 GB

0 | 1747

23

04.03.2017 11:27

© Зарубежное кино [DVDRip, Low-Res HDRip, и т.д.] Пазманский дьявол / Bleed for This (Бен Янгер / Ben Younger) [2016 г., драма, биография, спорт, BDRip] Dub (iTunes) 90ytr90
5 | 0
2,13 GB

0 | 1158

4

08.03.2017 19:14

© Зарубежное кино [HDDVDRip / BDRip / WEB-DL / HDTV 1080/720р] Пазманский дьявол / Bleed for This (Бен Янгер) [2016 г., драма, биография, спорт, BDRip 1080p] Dub (iTunes) + Original makkol
7 | 0
13,16 GB

0 | 1067

6

04.03.2017 11:41

© Зарубежное кино [HDDVDRip / BDRip / WEB-DL / HDTV 1080/720р] Пазманский дьявол / Bleed for This (Бен Янгер) [2016 г., драма, биография, спорт, BDRip 720p] Dub (iTunes) + Original makkol
21 | 1
5,64 GB

0 | 1244

6

04.03.2017 11:35


Яндекс.Метрика powered by Sphinx


В Н И М А Н И Е
Сайт не распространяет и не хранит электронные версии произведений, а лишь бесплатно и без коммерческой выгоды (не требуя взамен платы,
SMS и т.д.) предоставляет доступ к создаваемому пользователями каталогу ссылок на торрент-файлы, которые содержат только списки хеш-сумм.
Убедительная просьба с жалобами обращаться напрямую к пользователю, разместившему торрент файл.

Вверх