Loading...
Error

(Rhythmic Noise, Tribal Industrial) This Morn' Omina - Kundalini Rising (Limited Edition, 3CD) (2017) [FLAC (Tracks+.CUE), lossless]

Статистика раздачи
Размер:  1005 MB   |    Зарегистрирован:  1 год 2 месяца   |    Скачан:  4 раза

Полного источника не было: 1 месяц 19 дней

Сидов:  0  |  0 KB/s  ]   Личеров:  0  |  0 KB/s  ]

* - сиды/пиры с внешних источников

   
 
Автор Сообщение

Darkferse Пол:Жен

09-Апр-2017 14:59

This Morn' Omina - Kundalini Rising (Limited Edition)

Жанр: Rhythmic Noise, Tribal Industrial
Страна: Belgium
Год выпуска: 2017
Источник: CD
Производитель: Dependent Records - MIND269
Аудиокодек: FLAC
Тип рипа: Tracks+.CUE
Битрейт: lossless
Продолжительность: 02:31:20
01. Ayahuasca (09:03)
02. Tir Na Nog (08:02)
03. Hadji hadja (08:57)
04. Yugan (Feat. Catastrophe Noise) (07:08)
05. Garuda Vimana (07:32)
06. (The) Waters Of Duat (07:42)
07. Earthwalk (07:01)
08. Maenad (07:08)

Код:

Exact Audio Copy V1.1 from 23. June 2015

EAC extraction logfile from 6. April 2017, 18:43

This Morn' Omina / Kundalini Rising

Used drive  : TSSTcorpCDDVDW SH-222BB   Adapter: 1  ID: 0

Read mode               : Secure
Utilize accurate stream : Yes
Defeat audio cache      : Yes
Make use of C2 pointers : No

Read offset correction                      : 6
Overread into Lead-In and Lead-Out          : No
Fill up missing offset samples with silence : Yes
Delete leading and trailing silent blocks   : No
Null samples used in CRC calculations       : Yes
Used interface                              : Native Win32 interface for Win NT & 2000
Gap handling                                : Appended to previous track

Used output format              : User Defined Encoder
Selected bitrate                : 1024 kBit/s
Quality                         : High
Add ID3 tag                     : No
Command line compressor         : C:\Program Files\flac\flac.exe
Additional command line options : -8 -e -V -T "ARTIST=%artist%" -T "TITLE=%title%" -T "ALBUM=%albumtitle%" -T "DATE=%year%" -T "TRACKNUMBER=%tracknr%" -T "GENRE=%genre%" -T "PERFORMER=%albuminterpret%" -T "COMPOSER=%composer%" %haslyrics%--tag-from-file=LYRICS="%lyricsfile%"%haslyrics% -T "ALBUMARTIST=%albumartist%" -T "DISCNUMBER=%cdnumber%" -T "TOTALDISCS=%totalcds%" -T "TOTALTRACKS=%numtracks%" -T "COMMENT=%comment%" %source% -o %dest%

TOC of the extracted CD

     Track |   Start  |  Length  | Start sector | End sector
    ---------------------------------------------------------
        1  |  0:00.00 |  9:02.11 |         0    |    40660   
        2  |  9:02.11 |  8:01.42 |     40661    |    76777   
        3  | 17:03.53 |  8:56.21 |     76778    |   116998   
        4  | 25:59.74 |  7:07.68 |    116999    |   149091   
        5  | 33:07.67 |  7:31.37 |    149092    |   182953   
        6  | 40:39.29 |  7:41.30 |    182954    |   217558   
        7  | 48:20.59 |  7:00.04 |    217559    |   249062   
        8  | 55:20.63 |  7:07.12 |    249063    |   281099   

Track  1

     Filename C:\rip\TMO\01 - Ayahuasca.wav

     Pre-gap length  0:00:02.00

     Peak level 100.0 %
     Extraction speed 1.9 X
     Track quality 99.9 %
     Test CRC 8310059A
     Copy CRC 8310059A
     Track not present in AccurateRip database
     Copy OK

Track  2

     Filename C:\rip\TMO\02 - Tir Na Nog.wav

     Pre-gap length  0:00:02.00

     Peak level 100.0 %
     Extraction speed 2.4 X
     Track quality 100.0 %
     Test CRC 991E54FC
     Copy CRC 991E54FC
     Track not present in AccurateRip database
     Copy OK

Track  3

     Filename C:\rip\TMO\03 - Hadji hadja.wav

     Pre-gap length  0:00:02.00

     Peak level 100.0 %
     Extraction speed 2.8 X
     Track quality 100.0 %
     Test CRC 9A64B942
     Copy CRC 9A64B942
     Track not present in AccurateRip database
     Copy OK

Track  4

     Filename C:\rip\TMO\04 - Yugan (Feat. Catastrophe Noise).wav

     Pre-gap length  0:00:02.00

     Peak level 100.0 %
     Extraction speed 2.6 X
     Track quality 99.9 %
     Test CRC F1A4D62C
     Copy CRC F1A4D62C
     Track not present in AccurateRip database
     Copy OK

Track  5

     Filename C:\rip\TMO\05 - Garuda Vimana.wav

     Pre-gap length  0:00:02.00

     Peak level 100.0 %
     Extraction speed 2.8 X
     Track quality 99.9 %
     Test CRC 5743E468
     Copy CRC 5743E468
     Track not present in AccurateRip database
     Copy OK

Track  6

     Filename C:\rip\TMO\06 - (The) Waters Of Duat.wav

     Pre-gap length  0:00:02.00

     Peak level 100.0 %
     Extraction speed 3.4 X
     Track quality 100.0 %
     Test CRC 5C790F88
     Copy CRC 5C790F88
     Track not present in AccurateRip database
     Copy OK

Track  7

     Filename C:\rip\TMO\07 - Earthwalk.wav

     Pre-gap length  0:00:02.00

     Peak level 100.0 %
     Extraction speed 3.6 X
     Track quality 100.0 %
     Test CRC A48657B3
     Copy CRC A48657B3
     Track not present in AccurateRip database
     Copy OK

Track  8

     Filename C:\rip\TMO\08 - Maenad.wav

     Pre-gap length  0:00:02.00

     Peak level 100.0 %
     Extraction speed 3.8 X
     Track quality 100.0 %
     Test CRC 4893103F
     Copy CRC 4893103F
     Track not present in AccurateRip database
     Copy OK

None of the tracks are present in the AccurateRip database

No errors occurred

End of status report

---- CUETools DB Plugin V2.1.6

[CTDB TOCID: IJ2k3da.OWWfjO2rnxbP09ytFD0-] found
Submit result: IJ2k3da.OWWfjO2rnxbP09ytFD0- has been confirmed
Track | CTDB Status
  1   | (4/4) Accurately ripped
  2   | (4/4) Accurately ripped
  3   | (4/4) Accurately ripped
  4   | (4/4) Accurately ripped
  5   | (4/4) Accurately ripped
  6   | (4/4) Accurately ripped
  7   | (4/4) Accurately ripped
  8   | (3/4) Accurately ripped

==== Log checksum 3DBC7F2C2DDA3E18D3EE813E2D6DACCD3A66A8EF1C615504B6069EE53A047FC2 ====

Код:

REM DATE 2017
REM DISCID 610EA408
REM COMMENT "ExactAudioCopy v1.1"
PERFORMER "This Morn' Omina"
TITLE "Kundalini Rising"
FILE "01 - Ayahuasca.wav" WAVE
  TRACK 01 AUDIO
    TITLE "Ayahuasca"
    PERFORMER "This Morn' Omina"
    INDEX 01 00:00:00
  TRACK 02 AUDIO
    TITLE "Tir Na Nog"
    PERFORMER "This Morn' Omina"
    INDEX 00 09:00:11
FILE "02 - Tir Na Nog.wav" WAVE
    INDEX 01 00:00:00
  TRACK 03 AUDIO
    TITLE "Hadji hadja"
    PERFORMER "This Morn' Omina"
    INDEX 00 07:59:42
FILE "03 - Hadji hadja.wav" WAVE
    INDEX 01 00:00:00
  TRACK 04 AUDIO
    TITLE "Yugan (Feat. Catastrophe Noise)"
    PERFORMER "This Morn' Omina"
    INDEX 00 08:54:21
FILE "04 - Yugan (Feat. Catastrophe Noise).wav" WAVE
    INDEX 01 00:00:00
  TRACK 05 AUDIO
    TITLE "Garuda Vimana"
    PERFORMER "This Morn' Omina"
    INDEX 00 07:05:68
FILE "05 - Garuda Vimana.wav" WAVE
    INDEX 01 00:00:00
  TRACK 06 AUDIO
    TITLE "(The) Waters Of Duat"
    PERFORMER "This Morn' Omina"
    INDEX 00 07:29:37
FILE "06 - (The) Waters Of Duat.wav" WAVE
    INDEX 01 00:00:00
  TRACK 07 AUDIO
    TITLE "Earthwalk"
    PERFORMER "This Morn' Omina"
    INDEX 00 07:39:30
FILE "07 - Earthwalk.wav" WAVE
    INDEX 01 00:00:00
  TRACK 08 AUDIO
    TITLE "Maenad"
    PERFORMER "This Morn' Omina"
    INDEX 00 06:58:04
FILE "08 - Maenad.wav" WAVE
    INDEX 01 00:00:00
01. God's Zoo (08:12)
02. The Apotheosis Of Eckhart (09:57)
03. Graveheart (07:55)
04. Mohenjo Daro (08:13)
05. Kachina Blue (The Watcher) (06:29)
06. Kachina Red (End Of The World) (05:30)
07. Shakti (08:06)
08. Moksha (05:47)

Код:

Exact Audio Copy V1.1 from 23. June 2015

EAC extraction logfile from 7. April 2017, 18:44

This Morn' Omina / Kundalini Rising

Used drive  : TSSTcorpCDDVDW SH-222BB   Adapter: 1  ID: 0

Read mode               : Secure
Utilize accurate stream : Yes
Defeat audio cache      : Yes
Make use of C2 pointers : No

Read offset correction                      : 6
Overread into Lead-In and Lead-Out          : No
Fill up missing offset samples with silence : Yes
Delete leading and trailing silent blocks   : No
Null samples used in CRC calculations       : Yes
Used interface                              : Native Win32 interface for Win NT & 2000
Gap handling                                : Appended to previous track

Used output format              : User Defined Encoder
Selected bitrate                : 1024 kBit/s
Quality                         : High
Add ID3 tag                     : No
Command line compressor         : C:\Program Files\flac\flac.exe
Additional command line options : -8 -e -V -T "ARTIST=%artist%" -T "TITLE=%title%" -T "ALBUM=%albumtitle%" -T "DATE=%year%" -T "TRACKNUMBER=%tracknr%" -T "GENRE=%genre%" -T "PERFORMER=%albuminterpret%" -T "COMPOSER=%composer%" %haslyrics%--tag-from-file=LYRICS="%lyricsfile%"%haslyrics% -T "ALBUMARTIST=%albumartist%" -T "DISCNUMBER=%cdnumber%" -T "TOTALDISCS=%totalcds%" -T "TOTALTRACKS=%numtracks%" -T "COMMENT=%comment%" %source% -o %dest%

TOC of the extracted CD

     Track |   Start  |  Length  | Start sector | End sector
    ---------------------------------------------------------
        1  |  0:00.00 |  8:11.39 |         0    |    36863   
        2  |  8:11.39 |  9:56.07 |     36864    |    81570   
        3  | 18:07.46 |  7:54.18 |     81571    |   117138   
        4  | 26:01.64 |  8:12.65 |    117139    |   154103   
        5  | 34:14.54 |  6:28.44 |    154104    |   183247   
        6  | 40:43.23 |  5:29.70 |    183248    |   207992   
        7  | 46:13.18 |  8:05.20 |    207993    |   244387   
        8  | 54:18.38 |  5:46.59 |    244388    |   270396   

Track  1

     Filename C:\rip\This Morn' Omina - Kundalini Rising (2017){MIND269}[flac_cd]\CD2\01 - God's Zoo.wav

     Pre-gap length  0:00:02.00

     Peak level 100.0 %
     Extraction speed 2.0 X
     Track quality 100.0 %
     Test CRC 2AB93501
     Copy CRC 2AB93501
     Track not present in AccurateRip database
     Copy OK

Track  2

     Filename C:\rip\This Morn' Omina - Kundalini Rising (2017){MIND269}[flac_cd]\CD2\02 - The Apotheosis Of Eckhart.wav

     Pre-gap length  0:00:02.00

     Peak level 100.0 %
     Extraction speed 2.4 X
     Track quality 100.0 %
     Test CRC E7B990D9
     Copy CRC E7B990D9
     Track not present in AccurateRip database
     Copy OK

Track  3

     Filename C:\rip\This Morn' Omina - Kundalini Rising (2017){MIND269}[flac_cd]\CD2\03 - Graveheart.wav

     Pre-gap length  0:00:02.00

     Peak level 100.0 %
     Extraction speed 2.8 X
     Track quality 100.0 %
     Test CRC A512AAF9
     Copy CRC A512AAF9
     Track not present in AccurateRip database
     Copy OK

Track  4

     Filename C:\rip\This Morn' Omina - Kundalini Rising (2017){MIND269}[flac_cd]\CD2\04 - Mohenjo Daro.wav

     Pre-gap length  0:00:02.00

     Peak level 100.0 %
     Extraction speed 3.0 X
     Track quality 100.0 %
     Test CRC A84C5AE1
     Copy CRC A84C5AE1
     Track not present in AccurateRip database
     Copy OK

Track  5

     Filename C:\rip\This Morn' Omina - Kundalini Rising (2017){MIND269}[flac_cd]\CD2\05 - Kachina Blue (The Watcher).wav

     Pre-gap length  0:00:02.00

     Peak level 100.0 %
     Extraction speed 3.2 X
     Track quality 100.0 %
     Test CRC AB7B4B8F
     Copy CRC AB7B4B8F
     Track not present in AccurateRip database
     Copy OK

Track  6

     Filename C:\rip\This Morn' Omina - Kundalini Rising (2017){MIND269}[flac_cd]\CD2\06 - Kachina Red (End Of The World).wav

     Pre-gap length  0:00:02.00

     Peak level 100.0 %
     Extraction speed 3.3 X
     Track quality 100.0 %
     Test CRC F0208CF1
     Copy CRC F0208CF1
     Track not present in AccurateRip database
     Copy OK

Track  7

     Filename C:\rip\This Morn' Omina - Kundalini Rising (2017){MIND269}[flac_cd]\CD2\07 - Shakti.wav

     Pre-gap length  0:00:02.00

     Peak level 100.0 %
     Extraction speed 3.6 X
     Track quality 100.0 %
     Test CRC 4485A4AC
     Copy CRC 4485A4AC
     Track not present in AccurateRip database
     Copy OK

Track  8

     Filename C:\rip\This Morn' Omina - Kundalini Rising (2017){MIND269}[flac_cd]\CD2\08 - Moksha.wav

     Pre-gap length  0:00:02.00

     Peak level 99.4 %
     Extraction speed 3.7 X
     Track quality 100.0 %
     Test CRC 350BE35D
     Copy CRC 350BE35D
     Track not present in AccurateRip database
     Copy OK

None of the tracks are present in the AccurateRip database

No errors occurred

End of status report

---- CUETools DB Plugin V2.1.6

[CTDB TOCID: wbuGkyTaBDfcWqwk6QHzAaMIEqg-] found
Submit result: wbuGkyTaBDfcWqwk6QHzAaMIEqg- has been confirmed
Track | CTDB Status
  1   | (4/4) Accurately ripped
  2   | (4/4) Accurately ripped
  3   | (4/4) Accurately ripped
  4   | (4/4) Accurately ripped
  5   | (4/4) Accurately ripped
  6   | (4/4) Accurately ripped
  7   | (4/4) Accurately ripped
  8   | (4/4) Accurately ripped

==== Log checksum 52948602A9204DA4B1994C83C2FD05003E2D9A8959F8D59AAD6C66520CA08E2C ====

Код:

REM DATE 2017
REM DISCID 6F0E1508
REM COMMENT "ExactAudioCopy v1.1"
PERFORMER "This Morn' Omina"
TITLE "Kundalini Rising"
FILE "01 - God's Zoo.wav" WAVE
  TRACK 01 AUDIO
    TITLE "God's Zoo"
    PERFORMER "This Morn' Omina"
    INDEX 01 00:00:00
  TRACK 02 AUDIO
    TITLE "The Apotheosis Of Eckhart"
    PERFORMER "This Morn' Omina"
    INDEX 00 08:09:39
FILE "02 - The Apotheosis Of Eckhart.wav" WAVE
    INDEX 01 00:00:00
  TRACK 03 AUDIO
    TITLE "Graveheart"
    PERFORMER "This Morn' Omina"
    INDEX 00 09:54:07
FILE "03 - Graveheart.wav" WAVE
    INDEX 01 00:00:00
  TRACK 04 AUDIO
    TITLE "Mohenjo Daro"
    PERFORMER "This Morn' Omina"
    INDEX 00 07:52:18
FILE "04 - Mohenjo Daro.wav" WAVE
    INDEX 01 00:00:00
  TRACK 05 AUDIO
    TITLE "Kachina Blue (The Watcher)"
    PERFORMER "This Morn' Omina"
    INDEX 00 08:10:65
FILE "05 - Kachina Blue (The Watcher).wav" WAVE
    INDEX 01 00:00:00
  TRACK 06 AUDIO
    TITLE "Kachina Red (End Of The World)"
    PERFORMER "This Morn' Omina"
    INDEX 00 06:26:44
FILE "06 - Kachina Red (End Of The World).wav" WAVE
    INDEX 01 00:00:00
  TRACK 07 AUDIO
    TITLE "Shakti"
    PERFORMER "This Morn' Omina"
    INDEX 00 05:27:70
FILE "07 - Shakti.wav" WAVE
    INDEX 01 00:00:00
  TRACK 08 AUDIO
    TITLE "Moksha"
    PERFORMER "This Morn' Omina"
    INDEX 00 08:03:20
FILE "08 - Moksha.wav" WAVE
    INDEX 01 00:00:00
01. Ayahuasca (Let's Shift Together) [Ccf] (05:58)
02. Garuda Vimana [Ccf] (05:50)
03. Tir Na Nog [Ccf] (06:07)
04. Shakti [Ccf] (05:40)
05. Maenad [Ccf] (05:14)

Код:

Exact Audio Copy V1.1 from 23. June 2015

EAC extraction logfile from 7. April 2017, 10:30

This Morn' Omina / Kundalini Rising

Used drive  : TSSTcorpCDDVDW SH-222BB   Adapter: 1  ID: 0

Read mode               : Secure
Utilize accurate stream : Yes
Defeat audio cache      : Yes
Make use of C2 pointers : No

Read offset correction                      : 6
Overread into Lead-In and Lead-Out          : No
Fill up missing offset samples with silence : Yes
Delete leading and trailing silent blocks   : No
Null samples used in CRC calculations       : Yes
Used interface                              : Native Win32 interface for Win NT & 2000
Gap handling                                : Appended to previous track

Used output format              : User Defined Encoder
Selected bitrate                : 1024 kBit/s
Quality                         : High
Add ID3 tag                     : No
Command line compressor         : C:\Program Files\flac\flac.exe
Additional command line options : -8 -e -V -T "ARTIST=%artist%" -T "TITLE=%title%" -T "ALBUM=%albumtitle%" -T "DATE=%year%" -T "TRACKNUMBER=%tracknr%" -T "GENRE=%genre%" -T "PERFORMER=%albuminterpret%" -T "COMPOSER=%composer%" %haslyrics%--tag-from-file=LYRICS="%lyricsfile%"%haslyrics% -T "ALBUMARTIST=%albumartist%" -T "DISCNUMBER=%cdnumber%" -T "TOTALDISCS=%totalcds%" -T "TOTALTRACKS=%numtracks%" -T "COMMENT=%comment%" %source% -o %dest%

TOC of the extracted CD

     Track |   Start  |  Length  | Start sector | End sector
    ---------------------------------------------------------
        1  |  0:00.00 |  5:57.49 |         0    |    26823   
        2  |  5:57.49 |  5:49.53 |     26824    |    53051   
        3  | 11:47.27 |  6:06.02 |     53052    |    80503   
        4  | 17:53.29 |  5:39.34 |     80504    |   105962   
        5  | 23:32.63 |  5:13.27 |    105963    |   129464   

Track  1

     Filename C:\rip\This Morn' Omina - Kundalini Rising (2017){MIND269}[flac_cd]\CD3\01 - Ayahuasca (Let's Shift Together) [Ccf].wav

     Pre-gap length  0:00:02.00

     Peak level 100.0 %
     Extraction speed 1.9 X
     Track quality 100.0 %
     Test CRC C437BCB2
     Copy CRC C437BCB2
     Track not present in AccurateRip database
     Copy OK

Track  2

     Filename C:\rip\This Morn' Omina - Kundalini Rising (2017){MIND269}[flac_cd]\CD3\02 - Garuda Vimana [Ccf].wav

     Pre-gap length  0:00:02.00

     Peak level 100.0 %
     Extraction speed 2.2 X
     Track quality 100.0 %
     Test CRC 941B17D4
     Copy CRC 941B17D4
     Track not present in AccurateRip database
     Copy OK

Track  3

     Filename C:\rip\This Morn' Omina - Kundalini Rising (2017){MIND269}[flac_cd]\CD3\03 - Tir Na Nog [Ccf].wav

     Pre-gap length  0:00:02.00

     Peak level 100.0 %
     Extraction speed 2.4 X
     Track quality 100.0 %
     Test CRC 041D7387
     Copy CRC 041D7387
     Track not present in AccurateRip database
     Copy OK

Track  4

     Filename C:\rip\This Morn' Omina - Kundalini Rising (2017){MIND269}[flac_cd]\CD3\04 - Shakti [Ccf].wav

     Pre-gap length  0:00:02.00

     Peak level 100.0 %
     Extraction speed 2.6 X
     Track quality 100.0 %
     Test CRC 6CCA2FC7
     Copy CRC 6CCA2FC7
     Track not present in AccurateRip database
     Copy OK

Track  5

     Filename C:\rip\This Morn' Omina - Kundalini Rising (2017){MIND269}[flac_cd]\CD3\05 - Maenad [Ccf].wav

     Pre-gap length  0:00:02.00

     Peak level 100.0 %
     Extraction speed 2.8 X
     Track quality 100.0 %
     Test CRC E5089B68
     Copy CRC E5089B68
     Track not present in AccurateRip database
     Copy OK

None of the tracks are present in the AccurateRip database

No errors occurred

End of status report

---- CUETools DB Plugin V2.1.6

[CTDB TOCID: zpkJSResiHhpWoffaIOpzTz6sMg-] found
Submit result: zpkJSResiHhpWoffaIOpzTz6sMg- has been confirmed
Track | CTDB Status
  1   | (4/4) Accurately ripped
  2   | (4/4) Accurately ripped
  3   | (4/4) Accurately ripped
  4   | (4/4) Accurately ripped
  5   | (4/4) Accurately ripped

==== Log checksum 7CC73904BB129F33D24A71893D89DAFB6B95D18EBE3571077EA0CFFE2E23736A ====

Код:

REM DATE 2017
REM DISCID 3A06BE05
REM COMMENT "ExactAudioCopy v1.1"
PERFORMER "This Morn' Omina"
TITLE "Kundalini Rising"
FILE "01 - Ayahuasca (Let's Shift Together) [Ccf].wav" WAVE
  TRACK 01 AUDIO
    TITLE "Ayahuasca (Let's Shift Together) [Ccf]"
    PERFORMER "This Morn' Omina"
    INDEX 01 00:00:00
  TRACK 02 AUDIO
    TITLE "Garuda Vimana [Ccf]"
    PERFORMER "This Morn' Omina"
    INDEX 00 05:55:49
FILE "02 - Garuda Vimana [Ccf].wav" WAVE
    INDEX 01 00:00:00
  TRACK 03 AUDIO
    TITLE "Tir Na Nog [Ccf]"
    PERFORMER "This Morn' Omina"
    INDEX 00 05:47:53
FILE "03 - Tir Na Nog [Ccf].wav" WAVE
    INDEX 01 00:00:00
  TRACK 04 AUDIO
    TITLE "Shakti [Ccf]"
    PERFORMER "This Morn' Omina"
    INDEX 00 06:04:02
FILE "04 - Shakti [Ccf].wav" WAVE
    INDEX 01 00:00:00
  TRACK 05 AUDIO
    TITLE "Maenad [Ccf]"
    PERFORMER "This Morn' Omina"
    INDEX 00 05:37:34
FILE "05 - Maenad [Ccf].wav" WAVE
    INDEX 01 00:00:00
thismornomina.com

Этот торрент недоступен для скачивания без регистрации, однако доступен по публичной magnet-ссылке (источники с публичных трекеров). Перед использованием ссылки прочтите, пожалуйста Пользовательское соглашение, а также как можно дольше оставайтесь на раздаче! Для того, чтобы скачать сам торрент-файл (который видит больше источников), а также для того, чтобы поблагодарить релизера, вам необходимо зарегистрироваться. Если регистрироваться лень - вы можете также попробовать скачать релиз по нашим партнерским ссылкам ниже. Кроме того, зарегистрированным пользователям не показывается всплывающая реклама при скачивании.

[underverse.me].t81018.torrent
Трекер: Зарегистрирован   [ 09.04.2017 14:59 ]  

Статус: проверено (by Бишеп at 09.04.2017 16:43)
Поблагодарили: пока никто не поблагодарил...
Тип торрента: публичный - доступные источники с открытых трекеров: 
Размер: 1005 MB (занимает 0,22 DVDR, для записи нужно 1 болванка DVDR/RW)
 
 
Похожие темы
Форум Тема Автор Торрент Отв. Посл. сооб.
EBM, Industrial, Dark Electro, Darkwave, Gothic Synth (Rhythmic Noise, Industrial) Hypnoskull - Immer Wieder Nein (2016) [MP3, 320 kbps] ANDRAKO
3 | 0

0 | 472

2

11.12.2016 10:26

EBM, Industrial, Dark Electro, Darkwave, Gothic Synth (Rhythmic Noise, Power Noise, Industrial) Xotox - Essentials (Limited Edition) (2016) [MP3, 320 kbps] ANDRAKO
2 | 0

0 | 594

2

11.12.2016 09:38

EBM, Industrial, Dark Electro, Darkwave, Gothic Synth (Rhythmic Noise) Sonar - Shadow Dancers (2014) [MP3, 320 kbps] ANDRAKO
2 | 0

0 | 418

3

25.03.2017 09:05


Яндекс.Метрика powered by Sphinx


В Н И М А Н И Е
Сайт не распространяет и не хранит электронные версии произведений, а лишь бесплатно и без коммерческой выгоды (не требуя взамен платы,
SMS и т.д.) предоставляет доступ к создаваемому пользователями каталогу ссылок на торрент-файлы, которые содержат только списки хеш-сумм.
Убедительная просьба с жалобами обращаться напрямую к пользователю, разместившему торрент файл.

Вверх