Loading...
Error

(Blues Rock) Sean Chambers - Trouble & Whiskey (2017) [FLAC (Image+.Cue), Lossless]

Статистика раздачи
Размер:  308 MB   |    Зарегистрирован:  1 год 2 месяца   |    Скачан:  5 раз

Полного источника не было: 1 месяц

Сидов:  0  |  0 KB/s  ]   Личеров:  0  |  0 KB/s  ]

* - сиды/пиры с внешних источников

   
 
Автор Сообщение

Бишеп Пол:Муж

17-Апр-2017 12:33

Sean Chambers - Trouble & Whiskey

Жанр: Blues Rock
Год выпуска: 2017
Источник: CD
Производитель диска: American Showplace Music - ASM7104
Аудиокодек: FLAC
Тип рипа: Image+.CUE
Битрейт аудио: lossless
Продолжительность: 00:44:15


Треклист:
01. I Need Your Lovin' (3:40)
02. Bottle Keeps Staring At Me (4:05)
03. Trouble & Whiskey (5:06)
04. Travelin North (3:40)
05. Cut Off My Right Arm (4:45)
06. Bullfrog Blues (4:31)
07. Sweeter Than A Honey Bee (4:23)
08. Handyman (5:53)
09. Be Careful With A Fool (4:53)
10. Gonna Groove (3:15)

Код:

Exact Audio Copy V1.0 beta 3 from 29. August 2011

Отчёт EAC об извлечении, выполненном 11. апреля 2017, 20:17

Sean Chambers / Trouble & Whiskey

Дисковод: PLEXTOR DVDR   PX-880SA   Adapter: 1  ID: 0

Режим чтения                 : Достоверность
Использование точного потока : Да
Отключение кэша аудио        : Да
Использование указателей C2  : Нет

Коррекция смещения при чтении                     : 6
Способность читать области Lead-in и Lead-out     : Нет
Заполнение пропущенных сэмплов тишиной            : Да
Удаление блоков с тишиной в начале и конце        : Нет
При вычислениях CRC использовались нулевые сэмплы : Да
Интерфейс                                         : Установленный внешний ASPI-интерфейс

Выходной формат          : Пользовательский кодировщик
Выбранный битрейт        : 1024 kBit/s
Качество                 : Высокий
Добавление ID3-тега      : Нет
Утилита сжатия           : C:\Program Files\Exact Audio Copy\FLAC\FLAC.EXE
Дополнительные параметры : -8 -V -T "ARTIST=%artist%" -T "ALBUM=%albumtitle%" -T "DATE=%year%" -T "GENRE=%genre%" -T "COMMENT=ripped by izia1956" %source%

TOC извлечённого CD

     Трек |   Старт  | Длительность | Начальный сектор | Конечный сектор
    ---------------------------------------------------------------------
       1  |  0:00.00 |    3:40.20   |           0      |      16519     
       2  |  3:40.20 |    4:05.23   |       16520      |      34917     
       3  |  7:45.43 |    5:06.56   |       34918      |      57923     
       4  | 12:52.24 |    3:40.49   |       57924      |      74472     
       5  | 16:32.73 |    4:45.20   |       74473      |      95867     
       6  | 21:18.18 |    4:31.61   |       95868      |     116253     
       7  | 25:50.04 |    4:23.26   |      116254      |     136004     
       8  | 30:13.30 |    5:53.32   |      136005      |     162511     
       9  | 36:06.62 |    4:53.35   |      162512      |     184521     
      10  | 41:00.22 |    3:15.34   |      184522      |     199180     

Характеристики диапазона извлечения и сообщения об ошибках

Выбранный диапазон

     Имя файла D:\BitComet\Sean Chambers - Trouble & Whiskey (2017)\Sean Chambers - Trouble & Whiskey.wav

     Пиковый уровень 98.9 %
     Скорость извлечения 2.9 X
     Качество диапазона 100.0 %
     CRC теста 4BE12EBB
     CRC копии 4BE12EBB
     Копирование... OK

Ошибок не произошло

 
AccurateRip: сводка
 
Трек  1  отсутствует в базе данных
Трек  2  отсутствует в базе данных
Трек  3  отсутствует в базе данных
Трек  4  отсутствует в базе данных
Трек  5  отсутствует в базе данных
Трек  6  отсутствует в базе данных
Трек  7  отсутствует в базе данных
Трек  8  отсутствует в базе данных
Трек  9  отсутствует в базе данных
Трек 10  отсутствует в базе данных
 
Ни одного трека нет в базе AccurateRip

Конец отчёта

==== Контрольная сумма отчёта 39ED216E1A3163FA03A3A3658D6657B28CC182419131CDD35388A8193047A8EF ====

Код:

REM GENRE "Blues - Rock"
REM DATE 2017
REM DISCID 870A5F0A
REM COMMENT "ExactAudioCopy v1.0b3"
PERFORMER "Sean Chambers"
TITLE "Trouble & Whiskey"
FILE "Sean Chambers - Trouble & Whiskey.flac" WAVE
  TRACK 01 AUDIO
    TITLE "I Need Your Lovin'"
    PERFORMER "Sean Chambers"
    INDEX 01 00:00:00
  TRACK 02 AUDIO
    TITLE "Bottle Keeps Staring At Me"
    PERFORMER "Sean Chambers"
    INDEX 00 03:38:20
    INDEX 01 03:40:20
  TRACK 03 AUDIO
    TITLE "Trouble & Whiskey"
    PERFORMER "Sean Chambers"
    INDEX 00 07:43:43
    INDEX 01 07:45:43
  TRACK 04 AUDIO
    TITLE "Travelin North"
    PERFORMER "Sean Chambers"
    INDEX 00 12:50:24
    INDEX 01 12:52:24
  TRACK 05 AUDIO
    TITLE "Cut Off My Right Arm "
    PERFORMER "Sean Chambers"
    INDEX 00 16:30:73
    INDEX 01 16:32:73
  TRACK 06 AUDIO
    TITLE "Bullfrog Blues "
    PERFORMER "Sean Chambers"
    INDEX 00 21:16:18
    INDEX 01 21:18:18
  TRACK 07 AUDIO
    TITLE "Sweeter Than A Honey Bee"
    PERFORMER "Sean Chambers"
    INDEX 00 25:48:04
    INDEX 01 25:50:04
  TRACK 08 AUDIO
    TITLE "Handyman"
    PERFORMER "Sean Chambers"
    INDEX 00 30:11:30
    INDEX 01 30:13:30
  TRACK 09 AUDIO
    TITLE "Be Careful With A Fool"
    PERFORMER "Sean Chambers"
    INDEX 00 36:04:62
    INDEX 01 36:06:62
  TRACK 10 AUDIO
    TITLE "Gonna Groove"
    PERFORMER "Sean Chambers"
    INDEX 00 40:58:22
    INDEX 01 41:00:22

Этот торрент недоступен для скачивания без регистрации, однако доступен по публичной magnet-ссылке (источники с публичных трекеров). Перед использованием ссылки прочтите, пожалуйста Пользовательское соглашение, а также как можно дольше оставайтесь на раздаче! Для того, чтобы скачать сам торрент-файл (который видит больше источников), а также для того, чтобы поблагодарить релизера, вам необходимо зарегистрироваться. Если регистрироваться лень - вы можете также попробовать скачать релиз по нашим партнерским ссылкам ниже. Кроме того, зарегистрированным пользователям не показывается всплывающая реклама при скачивании.

[underverse.me].t81329.torrent
Трекер: Зарегистрирован   [ 17.04.2017 12:33 ]  

Статус: проверено (by Бишеп at 17.04.2017 12:38)
Поблагодарили: 2 человека
Тип торрента: публичный - доступные источники с открытых трекеров: 
Размер: 308 MB (занимает 0,07 DVDR, для записи нужно 1 болванка DVDR/RW)
 
 
Похожие темы
Форум Тема Автор Торрент Отв. Посл. сооб.
Blues (Blues Rock) The Charlie Smith Blues Band - Steppin' Down Blues Lane (2012) [MP3, 320 kbps] Jimmy
1 | 0

0 | 1688

7

22.10.2012 13:29

Blues (Blues Rock) Straightup Blues Band - Ain't Got A Clue (2012) [MP3, 320 kbps] NiiggazCPT
1 | 0

0 | 1585

7

04.12.2012 17:39

Blues (Blues Rock) Billy Walton Band - Soul Of A Man (2018) [MP3, 320 kbps CBR] Darkferse
0 | 0

0 | 460

9

19.01.2018 08:56

Blues (Blues Rock) Foxtrot And The Get Down - Roots Too Deep (2017) [MP3, 320 kbps CBR] Darkferse
1 | 0

0 | 985

11

24.02.2017 09:57

Blues (Blues Rock) Tedeschi Trucks Band - Live From The Fox Oakland (2CD) (2017) [MP3, 320 kbps CBR] Darkferse
1 | 0

0 | 847

6

16.03.2017 22:59

Blues (Blues Rock) Robert Walker & the Century Band - Year of the Dog (2017) [MP3, 320 kbps CBR] Darkferse
2 | 0

0 | 700

9

30.03.2017 21:28

Blues (Blues Rock, Indie Rock) The Jibs - The Jibs (EP) (2017) [MP3, 320 kbps CBR] Darkferse
1 | 0

0 | 436

4

06.04.2017 14:02

Blues (Blues Rock) Beggars Blue - New Boots (2017) [MP3, 320 kbps CBR] Darkferse
1 | 0

0 | 814

3

06.04.2017 20:43

Blues (Blues Rock, Delta Blues) Little Hook - Little Hook (2017) [MP3, 320 kbps CBR] Darkferse
1 | 0

0 | 687

4

06.04.2017 20:49

Blues (Blues Rock) The Red Earth Blues Band - The Red Earth Blues Band (2017) [MP3, 320 kbps CBR] Darkferse
1 | 0

0 | 840

4

06.04.2017 20:54


Яндекс.Метрика powered by Sphinx


В Н И М А Н И Е
Сайт не распространяет и не хранит электронные версии произведений, а лишь бесплатно и без коммерческой выгоды (не требуя взамен платы,
SMS и т.д.) предоставляет доступ к создаваемому пользователями каталогу ссылок на торрент-файлы, которые содержат только списки хеш-сумм.
Убедительная просьба с жалобами обращаться напрямую к пользователю, разместившему торрент файл.

Вверх