Loading...
Error

Кикбоксер / Kickboxer: Vengeance (Джон Стокуэлл) [2016 г., боевик, BD-Remux] MVO (iTunes) + Original

Статистика раздачи
Размер:  16,52 GB   |    Зарегистрирован:  1 год 2 месяца   |    Скачан:  8 раз

Полного источника не было: 4 месяца 23 дня

Сидов:  0  |  0 KB/s  ]   Личеров:  0  |  0 KB/s  ]

* - сиды/пиры с внешних источников

   
 
Автор Сообщение

makkol Пол:Муж

18-Апр-2017 11:36

Кикбоксер / Kickboxer: Vengeance


Год выпуска: 2016
Жанр: боевик
Производство: США [Headmon Entertainment & Productions, Radar Pictures Inc.]
Режиссер: Джон Стокуэлл
В ролях: Ален Мусси, Жорж Сен-Пьер, Т.Дж. Сторм, Мэттью Зифф, Сэм Медина, Дэйв Батиста, Сью-Линн Ансари, Даррен Шалави, Джина Карано, Хоун Трэн, Жан-Клод Ван Дамм
Сюжет фильма:
Сюжет разворачивается вокруг братьев из калифорнийской династии бойцов Дэвида и Курта Слоан. Дэвид погибает в одном из поединков в Гонконге. Узнав об этом, Курт едет в Таиланд к своему наставнику, с помощью которого рассчитывает обрести силу воли, чтобы отомстить за смерть брата.

  • Мировая премьера: 14 июля 2016


Качество видео: BD-Remux

Продолжительность: 01:30:26
Формат: MKV
Видео: MPEG-4 AVC, 1920x1080 (16:9), 23.976 fps, 21.8 Mbps
Аудио #1: русский, профессиональный многоголосый закадровый (iTunes), AC3 5.1, 48 kHz, 384 kbps
Аудио #2: английский, оригинал, DTS-HD MA 5.1, 48 kHz, 3998 kbps
Субтитры: английские вшитые отключаемые

Код:

Format : Matroska
Format version : Version 4 / Version 2
File size : 16.5 GiB
Duration : 1 h 30 min
Overall bit rate mode : Variable
Overall bit rate : 26.2 Mb/s
Encoded date : UTC 2017-04-18 07:37:41
Writing application : mkvmerge v10.0.0 ('To Drown In You') 64bit
Writing library : libebml v1.3.4 + libmatroska v1.4.5

Video
ID : 1
Format : AVC
Format/Info : Advanced Video Codec
Format profile : High@L4.1
Format settings, CABAC : Yes
Format settings, ReFrames : 4 frames
Codec ID : V_MPEG4/ISO/AVC
Duration : 1 h 30 min
Bit rate mode : Variable
Bit rate : 21.8 Mb/s
Maximum bit rate : 39.0 Mb/s
Width : 1 920 pixels
Height : 1 080 pixels
Display aspect ratio : 16:9
Frame rate mode : Constant
Frame rate : 23.976 (24000/1001) FPS
Color space : YUV
Chroma subsampling : 4:2:0
Bit depth : 8 bits
Scan type : Progressive
Bits/(Pixel*Frame) : 0.438
Stream size : 13.8 GiB (83%)
Language : English
Default : Yes
Forced : No

Audio #1
ID : 2
Format : AC-3
Format/Info : Audio Coding 3
Format settings, Endianness : Big
Codec ID : A_AC3
Duration : 1 h 30 min
Bit rate mode : Constant
Bit rate : 384 kb/s
Channel(s) : 6 channels
Channel positions : Front: L C R, Side: L R, LFE
Sampling rate : 48.0 kHz
Frame rate : 31.250 FPS (1536 spf)
Bit depth : 16 bits
Compression mode : Lossy
Stream size : 248 MiB (1%)
Title : iTunes
Language : Russian
Service kind : Complete Main
Default : Yes
Forced : No

Audio #2
ID : 3
Format : DTS
Format/Info : Digital Theater Systems
Format profile : MA / Core
Mode : 16
Format settings, Endianness : Big
Codec ID : A_DTS
Duration : 1 h 30 min
Bit rate mode : Variable / Constant
Bit rate : 3 998 kb/s / 1 509 kb/s
Channel(s) : 6 channels
Channel positions : Front: L C R, Side: L R, LFE
Sampling rate : 48.0 kHz
Frame rate : 93.750 FPS (512 spf)
Bit depth : 24 bits
Compression mode : Lossless / Lossy
Stream size : 2.52 GiB (15%)
Title : Original
Language : English
Default : No
Forced : No

Text
ID : 4
Format : UTF-8
Codec ID : S_TEXT/UTF8
Codec ID/Info : UTF-8 Plain Text
Duration : 1 h 20 min
Bit rate : 21 b/s
Count of elements : 383
Stream size : 12.6 KiB (0%)
Title : Full
Language : English
Default : No
Forced : No

Menu
00:00:00.000 : en:00:00:00.000
00:09:58.807 : en:00:09:58.807
00:19:27.500 : en:00:19:27.500
00:30:01.383 : en:00:30:01.383
00:39:43.339 : en:00:39:43.339
00:50:19.183 : en:00:50:19.183
01:00:29.417 : en:01:00:29.417
01:08:08.835 : en:01:08:08.835
01:14:56.826 : en:01:14:56.826
01:24:47.291 : en:01:24:47.291
Релиз:

picpicpicpicpic
Для увеличения картинки щелкните мышкой по превью

Этот торрент недоступен для скачивания без регистрации, однако доступен по публичной magnet-ссылке (источники с публичных трекеров). Перед использованием ссылки прочтите, пожалуйста Пользовательское соглашение, а также как можно дольше оставайтесь на раздаче! Для того, чтобы скачать сам торрент-файл (который видит больше источников), а также для того, чтобы поблагодарить релизера, вам необходимо зарегистрироваться. Если регистрироваться лень - вы можете также попробовать скачать релиз по нашим партнерским ссылкам ниже. Кроме того, зарегистрированным пользователям не показывается всплывающая реклама при скачивании.

[underverse.me].t81377.torrent
Трекер: Зарегистрирован   [ 18.04.2017 11:36 ]  

Статус: T временная (by makkol at 18.04.2017 11:36)
Поблагодарили: пока никто не поблагодарил...
Тип торрента: публичный - доступные источники с открытых трекеров: 
Размер: 16,52 GB (занимает 3,77 DVDR, для записи нужно 4 болванки DVDR/RW)
 
 
Похожие темы
Форум Тема Автор Торрент Отв. Посл. сооб.
T Зарубежное кино [DVDRip, Low-Res HDRip, и т.д.] Кикбоксер / Kickboxer: Vengeance (Джон Стокуэлл) [2016 г., боевик, BDRip-AVC] MVO (iTunes) + Original makkol
1 | 0

0 | 683

2

18.04.2017 11:27

Зарубежное кино [DVDRip, Low-Res HDRip, и т.д.] Кикбоксер / Kickboxer (Марк Дисалле /Mark DiSalle/, Дэвид Уорт /David Worth/) [1989 г., Боевик, Драма, Спорт, HD DVDRip] Dmitriy
3 | 0

4 | 1603

12

28.10.2016 15:11

Зарубежное кино [DVDRip, Low-Res HDRip, и т.д.] Кикбоксер / Kickboxer: Vengeance (Джон Стокуэлл) [2016 г., боевик, HDRip] MVO (СПД) makkol
3 | 0

0 | 568

11

28.10.2016 13:05

T Зарубежное кино [DVDRip, Low-Res HDRip, и т.д.] Кикбоксер / Kickboxer: Vengeance (Джон Стокуэлл) [2016 г., боевик, BDRip] MVO (iTunes) makkol
5 | 0

0 | 514

8

17.04.2017 21:18

Зарубежное кино [DVDRip, Low-Res HDRip, и т.д.] Кикбоксер возвращается / Кикбоксер: Возмездие / Kickboxer: Retaliation (Димитрий Логотетис / Dimitri Logothetis) [2018 г., боевик, WEB-DLRip] AVO (А.Гаврилов) 90ytr90
18 | 1

0 | 398

9

06.03.2018 07:33

* Зарубежное кино [DVDRip, Low-Res HDRip, и т.д.] Кикбоксер возвращается / Кикбоксер: Возмездие / Kickboxer: Retaliation (Димитрий Логотетис / Dimitri Logothetis) [2018 г., боевик, BDRip] AVO (Гаврилов) 90ytr90
83 | 1

0 | 296

10

20.03.2018 18:47

T Зарубежное кино [HDDVDRip / BDRip / WEB-DL / HDTV 1080/720р] Кикбоксер / Kickboxer: Vengeance (Джон Стокуэлл) [2016 г., боевик, BDRip 1080p] MVO (iTunes) + Original makkol
1 | 0

0 | 767

2

18.04.2017 11:14

T Зарубежное кино [HDDVDRip / BDRip / WEB-DL / HDTV 1080/720р] Кикбоксер / Kickboxer: Vengeance (Джон Стокуэлл) [2016 г., боевик, BDRip 720p] MVO (iTunes) + Original makkol
2 | 0

0 | 716

6

18.04.2017 11:03

Зарубежное кино [HDDVDRip / BDRip / WEB-DL / HDTV 1080/720р] Кикбоксер возвращается / Кикбоксер: Возмездие / Kickboxer: Retaliation (Димитрий Логотетис / Dimitri Logothetis) [2018 г., боевик, WEB-DL 1080p] AVO (А.Гаврилов) + Original (Eng) + Sub (Eng) 90ytr90
6 | 1

0 | 391

15

06.03.2018 07:37

Архив (художественные фильмы) Кикбоксер / Kickboxer: Vengeance (Джон Стокуэлл / John Stockwell) [2016 г., боевик, HDRip] MVO (СПД) 90ytr90
1 | 0

1 | 606

7

31.01.2018 15:07


Яндекс.Метрика powered by Sphinx


В Н И М А Н И Е
Сайт не распространяет и не хранит электронные версии произведений, а лишь бесплатно и без коммерческой выгоды (не требуя взамен платы,
SMS и т.д.) предоставляет доступ к создаваемому пользователями каталогу ссылок на торрент-файлы, которые содержат только списки хеш-сумм.
Убедительная просьба с жалобами обращаться напрямую к пользователю, разместившему торрент файл.

Вверх