Loading...
Error

(Blues Rock) Aaron Keylock - Cut Against The Grain (2017) [FLAC (Image+.CUE), Lossless]

Статистика раздачи
Размер:  533 MB   |    Зарегистрирован:  1 год 2 месяца   |    Скачан:  4 раза

Полного источника не было: 2 месяца 22 дня

Сидов:  0  |  0 KB/s  ]   Личеров:  0  |  0 KB/s  ]

* - сиды/пиры с внешних источников

   
 
Автор Сообщение

Бишеп Пол:Муж

21-Апр-2017 07:53

Aaron Keylock - Cut Against The Grain

Жанр: Blues Rock
Год выпуска: 2017
Источник: CD
Производитель диска: Provogue ‎– PRO74842
Аудиокодек: FLAC
Тип рипа: Image+.CUE
Битрейт аудио: lossless
Продолжительность: 00:47:10


Треклист:
01. All The Right Moves (3:32)
02. Down (4:34)
03. Medicine Man (3:10)
04. Falling Again (3:25)
05. Just One Question (6:09)
06. Against The Grain (3:49)
07. That's Not Me (3:22)
08. Try (5:17)
09. Spin The Bottle (3:59)
10. Sun's Gonna Shine (5:11)
11. No Matter What The Cost (4:41)

Код:

Exact Audio Copy V1.1 from 23. June 2015

Отчёт EAC об извлечении, выполненном 23. февраля 2017, 20:22

Aaron Keylock / Cut Against The Grain

Дисковод: PLEXTOR DVDR   PX-891SA   Adapter: 1  ID: 3

Режим чтения                 : Достоверность
Использование точного потока : Да
Отключение кэша аудио        : Да
Использование указателей C2  : Нет

Коррекция смещения при чтении                     : 6
Способность читать области Lead-in и Lead-out     : Нет
Заполнение пропущенных сэмплов тишиной            : Да
Удаление блоков с тишиной в начале и конце        : Нет
При вычислениях CRC использовались нулевые сэмплы : Да
Интерфейс                                         : Встроенный Win32-интерфейс для Win NT/2000

Выходной формат          : Пользовательский кодировщик
Выбранный битрейт        : 896 kBit/s
Качество                 : Высокий
Добавление ID3-тега      : Нет
Утилита сжатия           : C:\Exact Audio Copy\FLAC\FLAC.EXE
Дополнительные параметры : -6 -V -T "ARTIST=%artist%" -T "TITLE=%title%" -T "ALBUM=%albumtitle%" -T "DATE=%year%" -T "TRACKNUMBER=%tracknr%" -T "GENRE=%genre%" -T "COMMENT=%comment%" -T "BAND=%albuminterpret%" -T "ALBUMARTIST=%albuminterpret%" -T "COMPOSER=%composer%" %haslyrics%--tag-from-file=LYRICS="%lyricsfile%"%haslyrics% -T "DISCNUMBER=%cdnumber%" -T "TOTALDISCS=%totalcds%" -T "TOTALTRACKS=%numtracks%" %hascover%--picture="%coverfile%"%hascover% %source% -o %dest%

TOC извлечённого CD

     Трек |   Старт  | Длительность | Начальный сектор | Конечный сектор
    ---------------------------------------------------------------------
       1  |  0:00.00 |    3:32.13   |           0      |      15912     
       2  |  3:32.13 |    4:33.64   |       15913      |      36451     
       3  |  8:06.02 |    3:09.44   |       36452      |      50670     
       4  | 11:15.46 |    3:25.11   |       50671      |      66056     
       5  | 14:40.57 |    6:09.04   |       66057      |      93735     
       6  | 20:49.61 |    3:48.53   |       93736      |     110888     
       7  | 24:38.39 |    3:21.72   |      110889      |     126035     
       8  | 28:00.36 |    5:16.70   |      126036      |     149805     
       9  | 33:17.31 |    3:59.26   |      149806      |     167756     
      10  | 37:16.57 |    5:10.66   |      167757      |     191072     
      11  | 42:27.48 |    4:41.25   |      191073      |     212172     

Характеристики диапазона извлечения и сообщения об ошибках

Выбранный диапазон

     Имя файла C:\Users\Евгений\Desktop\Aaron Keylock\Aaron Keylock - Cut Against The Grain.wav

     Пиковый уровень 100.0 %
     Скорость извлечения 4.1 X
     Качество диапазона 99.8 %
     CRC теста 1BE5EE04
     CRC копии 1BE5EE04
     Копирование... OK

Ошибок не произошло

Конец отчёта

---- CUETools DB Plugin V2.1.6

[CTDB TOCID: QGyW3bODyAOruZyCScM3pTeUYdc-] found
Submit result: already submitted
Track | CTDB Status
  1   | (7/7) Accurately ripped
  2   | (7/7) Accurately ripped
  3   | (7/7) Accurately ripped
  4   | (7/7) Accurately ripped
  5   | (7/7) Accurately ripped
  6   | (7/7) Accurately ripped
  7   | (7/7) Accurately ripped
  8   | (7/7) Accurately ripped
  9   | (7/7) Accurately ripped
 10   | (7/7) Accurately ripped
 11   | (7/7) Accurately ripped

==== Контрольная сумма отчёта 8C05EBE0BF7F1340152B209DFF33BE4701A173F093F3858E1DFDACBBF184074E ====

Код:

REM GENRE "Blues Rock"
REM DATE 2017
REM DISCID A90B0C0B
REM COMMENT "ExactAudioCopy v1.1"
PERFORMER "Aaron Keylock"
TITLE "Cut Against The Grain"
FILE "Aaron Keylock - Cut Against The Grain.flac" WAVE
  TRACK 01 AUDIO
    TITLE "All The Right Moves"
    PERFORMER "Aaron Keylock"
    INDEX 01 00:00:00
  TRACK 02 AUDIO
    TITLE "Down"
    PERFORMER "Aaron Keylock"
    INDEX 01 03:32:13
  TRACK 03 AUDIO
    TITLE "Medicine Man"
    PERFORMER "Aaron Keylock"
    INDEX 01 08:06:02
  TRACK 04 AUDIO
    TITLE "Falling Again"
    PERFORMER "Aaron Keylock"
    INDEX 01 11:15:46
  TRACK 05 AUDIO
    TITLE "Just One Question"
    PERFORMER "Aaron Keylock"
    INDEX 01 14:40:57
  TRACK 06 AUDIO
    TITLE "Against The Grain"
    PERFORMER "Aaron Keylock"
    INDEX 01 20:49:61
  TRACK 07 AUDIO
    TITLE "That's Not Me"
    PERFORMER "Aaron Keylock"
    INDEX 01 24:38:39
  TRACK 08 AUDIO
    TITLE "Try"
    PERFORMER "Aaron Keylock"
    INDEX 01 28:00:36
  TRACK 09 AUDIO
    TITLE "Spin The Bottle"
    PERFORMER "Aaron Keylock"
    INDEX 01 33:17:31
  TRACK 10 AUDIO
    TITLE "Sun's Gonna Shine"
    PERFORMER "Aaron Keylock"
    INDEX 01 37:16:57
  TRACK 11 AUDIO
    TITLE "No Matter What The Cost"
    PERFORMER "Aaron Keylock"
    INDEX 01 42:27:48

Этот торрент недоступен для скачивания без регистрации, однако доступен по публичной magnet-ссылке (источники с публичных трекеров). Перед использованием ссылки прочтите, пожалуйста Пользовательское соглашение, а также как можно дольше оставайтесь на раздаче! Для того, чтобы скачать сам торрент-файл (который видит больше источников), а также для того, чтобы поблагодарить релизера, вам необходимо зарегистрироваться. Если регистрироваться лень - вы можете также попробовать скачать релиз по нашим партнерским ссылкам ниже. Кроме того, зарегистрированным пользователям не показывается всплывающая реклама при скачивании.

[underverse.me].t81495.torrent
Трекер: Зарегистрирован   [ 21.04.2017 07:53 ]  

Статус: проверено (by Бишеп at 21.04.2017 07:53)
Поблагодарили: пока никто не поблагодарил...
Тип торрента: публичный - доступные источники с открытых трекеров: 
Размер: 533 MB (занимает 0,12 DVDR, для записи нужно 1 болванка DVDR/RW)
 
 
Похожие темы
Форум Тема Автор Торрент Отв. Посл. сооб.
Blues (Blues Rock) The Charlie Smith Blues Band - Steppin' Down Blues Lane (2012) [MP3, 320 kbps] Jimmy
1 | 0

0 | 1688

7

22.10.2012 13:29

Blues (Blues Rock) Straightup Blues Band - Ain't Got A Clue (2012) [MP3, 320 kbps] NiiggazCPT
1 | 0

0 | 1585

7

04.12.2012 17:39

Blues (Blues Rock) Billy Walton Band - Soul Of A Man (2018) [MP3, 320 kbps CBR] Darkferse
0 | 0

0 | 460

9

19.01.2018 08:56

Blues (Blues Rock) Foxtrot And The Get Down - Roots Too Deep (2017) [MP3, 320 kbps CBR] Darkferse
1 | 0

0 | 985

11

24.02.2017 09:57

Blues (Blues Rock) Tedeschi Trucks Band - Live From The Fox Oakland (2CD) (2017) [MP3, 320 kbps CBR] Darkferse
1 | 0

0 | 847

6

16.03.2017 22:59

Blues (Blues Rock) Robert Walker & the Century Band - Year of the Dog (2017) [MP3, 320 kbps CBR] Darkferse
2 | 0

0 | 700

9

30.03.2017 21:28

Blues (Blues Rock, Indie Rock) The Jibs - The Jibs (EP) (2017) [MP3, 320 kbps CBR] Darkferse
1 | 0

0 | 436

4

06.04.2017 14:02

Blues (Blues Rock) Beggars Blue - New Boots (2017) [MP3, 320 kbps CBR] Darkferse
1 | 0

0 | 814

3

06.04.2017 20:43

Blues (Blues Rock, Delta Blues) Little Hook - Little Hook (2017) [MP3, 320 kbps CBR] Darkferse
1 | 0

0 | 687

4

06.04.2017 20:49

Blues (Blues Rock) The Red Earth Blues Band - The Red Earth Blues Band (2017) [MP3, 320 kbps CBR] Darkferse
1 | 0

0 | 840

4

06.04.2017 20:54


Яндекс.Метрика powered by Sphinx


В Н И М А Н И Е
Сайт не распространяет и не хранит электронные версии произведений, а лишь бесплатно и без коммерческой выгоды (не требуя взамен платы,
SMS и т.д.) предоставляет доступ к создаваемому пользователями каталогу ссылок на торрент-файлы, которые содержат только списки хеш-сумм.
Убедительная просьба с жалобами обращаться напрямую к пользователю, разместившему торрент файл.

Вверх