Loading...
Error

(Blues Rock) Jeff Healey - Heal My Soul (2016) [FLAC (Image+.CUE), Lossless]

Статистика раздачи
Размер:  335 MB   |    Зарегистрирован:  1 год 2 месяца   |    Скачан:  2 раза

Полного источника не было: 4 дня

Сидов:  0  |  0 KB/s  ]   Личеров:  0  |  0 KB/s  ]

* - сиды/пиры с внешних источников

   
 
Автор Сообщение

Бишеп Пол:Муж

21-Апр-2017 08:04

Jeff Healey - Heal My Soul

Жанр: Blues Rock
Год выпуска: 2016
Источник: CD
Производитель диска: Provogue - PRD 7489 2
Аудиокодек: FLAC
Тип рипа: Image+.CUE
Битрейт аудио: lossless
Продолжительность: 00:51:56


Треклист:
01. Daze Of The Night (04:00)
02. Moodswing (04:08)
03. Baby Blue (04:06)
04. I Misunderstood (04:34)
05. Please (03:42)
06. Love In Her Eyes (04:13)
07. Temptation (05:01)
08. Kiss The Ground You Walk On (04:18)
09. All The Saints (05:00)
10. Put The Shoe On The Other Foot (04:18)
11. Under A Stone (04:02)
12. It's The Last Time (04:28)

Код:

Exact Audio Copy V1.1 from 23. June 2015

EAC extraction logfile from 25. March 2016, 17:29

Jeff Healey / Heal My Soul

Used drive  : HL-DT-STDVDRAM GH24NSD1   Adapter: 0  ID: 0

Read mode               : Secure
Utilize accurate stream : Yes
Defeat audio cache      : Yes
Make use of C2 pointers : No

Read offset correction                      : 6
Overread into Lead-In and Lead-Out          : No
Fill up missing offset samples with silence : Yes
Delete leading and trailing silent blocks   : No
Null samples used in CRC calculations       : Yes
Used interface                              : Installed external ASPI interface

Used output format : Internal WAV Routines
Sample format      : 44.100 Hz; 16 Bit; Stereo

TOC of the extracted CD

     Track |   Start  |  Length  | Start sector | End sector
    ---------------------------------------------------------
        1  |  0:00.00 |  4:00.09 |         0    |    18008   
        2  |  4:00.09 |  4:08.29 |     18009    |    36637   
        3  |  8:08.38 |  4:06.14 |     36638    |    55101   
        4  | 12:14.52 |  4:34.62 |     55102    |    75713   
        5  | 16:49.39 |  3:42.20 |     75714    |    92383   
        6  | 20:31.59 |  4:13.62 |     92384    |   111420   
        7  | 24:45.46 |  5:01.65 |    111421    |   134060   
        8  | 29:47.36 |  4:18.54 |    134061    |   153464   
        9  | 34:06.15 |  5:00.45 |    153465    |   176009   
       10  | 39:06.60 |  4:18.59 |    176010    |   195418   
       11  | 43:25.44 |  4:02.14 |    195419    |   213582   
       12  | 47:27.58 |  4:28.37 |    213583    |   233719   

Range status and errors

Selected range

     Filename E:\SPOTNET\Jeff Healey - Heal My Soul (EAC)\Jeff Healey - Heal My Soul.wav

     Peak level 100.0 %
     Extraction speed 6.9 X
     Range quality 100.0 %
     Test CRC CAD0192F
     Copy CRC CAD0192F
     Copy OK

No errors occurred

 
AccurateRip summary
 
Track  1  not present in database
Track  2  not present in database
Track  3  not present in database
Track  4  not present in database
Track  5  not present in database
Track  6  not present in database
Track  7  not present in database
Track  8  not present in database
Track  9  not present in database
Track 10  not present in database
Track 11  not present in database
Track 12  not present in database
 
None of the tracks are present in the AccurateRip database

End of status report

Код:

REM GENRE Blues Rock
REM DATE 2016
REM DISCID A50C2C0C
REM COMMENT "ExactAudioCopy v1.1"
PERFORMER "Jeff Healey"
TITLE "Heal My Soul"
FILE "Jeff Healey - Heal My Soul.flac" WAVE
  TRACK 01 AUDIO
    TITLE "Daze Of The Night"
    PERFORMER "Jeff Healey"
    INDEX 01 00:00:00
  TRACK 02 AUDIO
    TITLE "Moodswing"
    PERFORMER "Jeff Healey"
    INDEX 01 04:00:09
  TRACK 03 AUDIO
    TITLE "Baby Blue"
    PERFORMER "Jeff Healey"
    INDEX 00 08:06:68
    INDEX 01 08:08:38
  TRACK 04 AUDIO
    TITLE "I Misunderstood"
    PERFORMER "Jeff Healey"
    INDEX 00 12:12:00
    INDEX 01 12:14:52
  TRACK 05 AUDIO
    TITLE "Please"
    PERFORMER "Jeff Healey"
    INDEX 00 16:46:70
    INDEX 01 16:49:39
  TRACK 06 AUDIO
    TITLE "Love In Her Eyes"
    PERFORMER "Jeff Healey"
    INDEX 00 20:29:34
    INDEX 01 20:31:59
  TRACK 07 AUDIO
    TITLE "Temptation"
    PERFORMER "Jeff Healey"
    INDEX 00 24:44:08
    INDEX 01 24:45:46
  TRACK 08 AUDIO
    TITLE "Kiss The Ground You Walk On"
    PERFORMER "Jeff Healey"
    INDEX 00 29:46:16
    INDEX 01 29:47:36
  TRACK 09 AUDIO
    TITLE "All The Saints"
    PERFORMER "Jeff Healey"
    INDEX 00 34:03:52
    INDEX 01 34:06:15
  TRACK 10 AUDIO
    TITLE "Put The Shoe On The Other Foot"
    PERFORMER "Jeff Healey"
    INDEX 00 39:04:72
    INDEX 01 39:06:60
  TRACK 11 AUDIO
    TITLE "Under A Stone"
    PERFORMER "Jeff Healey"
    INDEX 01 43:25:44
  TRACK 12 AUDIO
    TITLE "It's The Last Time"
    PERFORMER "Jeff Healey"
    INDEX 00 47:25:57
    INDEX 01 47:27:58

Этот торрент недоступен для скачивания без регистрации, однако доступен по публичной magnet-ссылке (источники с публичных трекеров). Перед использованием ссылки прочтите, пожалуйста Пользовательское соглашение, а также как можно дольше оставайтесь на раздаче! Для того, чтобы скачать сам торрент-файл (который видит больше источников), а также для того, чтобы поблагодарить релизера, вам необходимо зарегистрироваться. Если регистрироваться лень - вы можете также попробовать скачать релиз по нашим партнерским ссылкам ниже. Кроме того, зарегистрированным пользователям не показывается всплывающая реклама при скачивании.

[underverse.me].t81496.torrent
Трекер: Зарегистрирован   [ 21.04.2017 08:04 ]  

Статус: проверено (by Бишеп at 21.04.2017 08:05)
Поблагодарили: пока никто не поблагодарил...
Тип торрента: публичный - доступные источники с открытых трекеров: 
Размер: 335 MB (занимает 0,07 DVDR, для записи нужно 1 болванка DVDR/RW)
 
 
Похожие темы
Форум Тема Автор Торрент Отв. Посл. сооб.
Blues (Blues Rock) The Charlie Smith Blues Band - Steppin' Down Blues Lane (2012) [MP3, 320 kbps] Jimmy
1 | 0

0 | 1688

7

22.10.2012 13:29

Blues (Blues Rock) Straightup Blues Band - Ain't Got A Clue (2012) [MP3, 320 kbps] NiiggazCPT
1 | 0

0 | 1585

7

04.12.2012 17:39

Blues (Blues Rock) Billy Walton Band - Soul Of A Man (2018) [MP3, 320 kbps CBR] Darkferse
0 | 0

0 | 460

9

19.01.2018 08:56

Blues (Blues Rock) Foxtrot And The Get Down - Roots Too Deep (2017) [MP3, 320 kbps CBR] Darkferse
1 | 0

0 | 985

11

24.02.2017 09:57

Blues (Blues Rock) Tedeschi Trucks Band - Live From The Fox Oakland (2CD) (2017) [MP3, 320 kbps CBR] Darkferse
1 | 0

0 | 847

6

16.03.2017 22:59

Blues (Blues Rock) Robert Walker & the Century Band - Year of the Dog (2017) [MP3, 320 kbps CBR] Darkferse
2 | 0

0 | 700

9

30.03.2017 21:28

Blues (Blues Rock, Indie Rock) The Jibs - The Jibs (EP) (2017) [MP3, 320 kbps CBR] Darkferse
1 | 0

0 | 436

4

06.04.2017 14:02

Blues (Blues Rock) Beggars Blue - New Boots (2017) [MP3, 320 kbps CBR] Darkferse
1 | 0

0 | 814

3

06.04.2017 20:43

Blues (Blues Rock, Delta Blues) Little Hook - Little Hook (2017) [MP3, 320 kbps CBR] Darkferse
1 | 0

0 | 687

4

06.04.2017 20:49

Blues (Blues Rock) The Red Earth Blues Band - The Red Earth Blues Band (2017) [MP3, 320 kbps CBR] Darkferse
1 | 0

0 | 840

4

06.04.2017 20:54


Яндекс.Метрика powered by Sphinx


В Н И М А Н И Е
Сайт не распространяет и не хранит электронные версии произведений, а лишь бесплатно и без коммерческой выгоды (не требуя взамен платы,
SMS и т.д.) предоставляет доступ к создаваемому пользователями каталогу ссылок на торрент-файлы, которые содержат только списки хеш-сумм.
Убедительная просьба с жалобами обращаться напрямую к пользователю, разместившему торрент файл.

Вверх