Loading...
Error

(Score) Бэтмен: Возвращение рыцарей в масках / Batman: Return of the Caped Crusaders (by Kristopher Carter, Lolita Ritmanis, Michael McCuistion) (2016) [FLAC (Tracks+.CUE), lossless]

Статистика раздачи
Размер:  434 MB   |    Зарегистрирован:  1 год 1 месяц   |    Скачан:  1 раз
Сидов:  2  |  0 KB/s  ]   Личеров:  0  |  0 KB/s  ]

* - сиды/пиры с внешних источников

   
 
Автор Сообщение

garry Пол:Муж

02-Май-2017 15:25

Бэтмен: Возвращение рыцарей в масках / Batman: Return of the Caped Crusaders

Жанр: Score
Год выпуска: 2016
Источник: CD / KevinG
Производитель: USA, La-La Land Records, LLLCD 1415
Аудиокодек: FLAC
Тип рипа: Tracks+.CUE
Битрейт: lossless
Продолжительность: 01:12:27
01 - Neal Hefti - Classic Batman Main Title
02 - Michael McCuistion - Batman's New Look
03 - Kristopher Carter and Michael McCuistion - Meet Our Baddies / It's the Bat-Signal
04 - Neal Hefti - To the Batcave
05 - Michael McCuistion - Not so Fast, Old Chum / Crosswalk Conundrum
06 - Lolita Ritmanis and Neal Hefti - Riddle Me This? / Atomic Lab Fight
07 - Lolita Ritmanis - Jokermobile Chase
08 - Kristopher Carter - Catwoman has Batnip
09 - Michael McCuistion - TV Dinner Factory Arrival
10 - Kristopher Carter - TV Dinner Factory Kerfuffle / TV Tray Death Trap / Dessert Denouement
11 - Kristopher Carter, Lolita Ritmanis, Michael McCuistion - Establish Police HQ / The BatShadow Rises / A Moment with Aunt Harriet / You're Dismissed
12 - Lolita Ritmanis - In Search of Criminal Activity
13 - Michael McCuistion - Batcave Batmobile Arrival / To the Bat-Rocket
14 - Kristopher Carter - The Right Bat Stuff / Space Joker Playon
15 - Lolita Ritmanis - Bat-Rocket Approaches the Station
16 - Michael McCuistion and Lolita Ritmanis - Outer Space Rendezvous / Under the Influence
17 - Kristopher Carter - Zero-G Brawl
18 - Kristopher Carter and Michael McCuistion - Like a Bat in the Night / Holy Hitchhiker, Robin
19 - Lolita Ritmanis and Michael McCuistion - Bruce Snaps at Aunt / Back Alley Dirge
20 - Lolita Ritmanis - Why won't He Answer?
21 - Michael McCuistion - Gotham Crime Spree
22 - Kristopher Carter and Michael McCuistion - Bat Dupe See / Batmen Take Over / Robin Figures it Out
23 - Lolita Ritmanis - Catwoman is in Her Element / To the Catmobile
24 - Michael McCuistion - Batcave Showdown
25 - Michael McCuistion and Lolita Ritmanis - Radioactive Silo Trap / Bat Anti-Isotope Spray / Surprise Prison Inspection
26 - Michael McCuistion - Mass Prison Break
27 - Michael McCuistion and Neal Hefti - The Show Must Go on / Bat TV Two See
28 - Lolita Ritmanis - Bad Batmen
29 - Michael McCuistion - One Step Ahead
30 - Lolita Ritmanis - Villains Plan
31 - Michael McCuistion - Airship Battle
32 - Lolita Ritmanis - Farewell Catwoman
33 - Neal Hefti - Classic Batman End Titles
34 - Michael McCuistion - Gotham Palace TV Theme [Bonus Track]
35 - Lolita Ritmanis - Hector and the Hoedaddies [Bonus Track]
36 - Michael McCuistion - Bedbugs TV Source [Bonus Track]
37 - Michael McCuistion - Kitkat Cave Dancing [Bonus Track]
38 - Michael McCuistion - Gotham Palace TV Source #2 [Bonus Track]
39 - Lolita Ritmanis - Joker Circus [Bonus Track]
40 - Lolita Ritmanis - Elegant Party Source [Bonus Track]
X Lossless Decoder version 20161007 (149.3)

XLD extraction logfile from 2016-11-19 16:56:51 -0600

Various Artists / Batman: Return of the Caped Crusaders

Used drive : TSSTcorp BDDVDW SE-506CB (revision TS00)
Media type : Pressed CD

Ripper mode : XLD Secure Ripper
Disable audio cache : OK for the drive with a cache less than 1375KiB
Make use of C2 pointers : NO
Read offset correction : 6
Max retry count : 100
Gap status : Analyzed, Appended

TOC of the extracted CD
Track | Start | Length | Start sector | End sector
---------------------------------------------------------
1 | 00:00:00 | 01:26:28 | 0 | 6477
2 | 01:26:28 | 00:27:33 | 6478 | 8535
3 | 01:53:61 | 02:23:61 | 8536 | 19321
4 | 04:17:47 | 01:55:16 | 19322 | 27962
5 | 06:12:63 | 00:31:49 | 27963 | 30336
6 | 06:44:37 | 03:15:23 | 30337 | 44984
7 | 09:59:60 | 01:51:33 | 44985 | 53342
8 | 11:51:18 | 01:51:32 | 53343 | 61699
9 | 13:42:50 | 01:26:17 | 61700 | 68166
10 | 15:08:67 | 04:33:21 | 68167 | 88662
11 | 19:42:13 | 02:16:54 | 88663 | 98916
12 | 21:58:67 | 01:12:34 | 98917 | 104350
13 | 23:11:26 | 01:21:60 | 104351 | 110485
14 | 24:33:11 | 01:30:67 | 110486 | 117302
15 | 26:04:03 | 01:22:65 | 117303 | 123517
16 | 27:26:68 | 03:35:39 | 123518 | 139681
17 | 31:02:32 | 02:31:30 | 139682 | 151036
18 | 33:33:62 | 00:39:11 | 151037 | 153972
19 | 34:12:73 | 01:04:71 | 153973 | 158843
20 | 35:17:69 | 00:35:31 | 158844 | 161499
21 | 35:53:25 | 00:41:15 | 161500 | 164589
22 | 36:34:40 | 03:41:01 | 164590 | 181165
23 | 40:15:41 | 02:12:06 | 181166 | 191071
24 | 42:27:47 | 02:26:31 | 191072 | 202052
25 | 44:54:03 | 02:47:49 | 202053 | 214626
26 | 47:41:52 | 01:33:49 | 214627 | 221650
27 | 49:15:26 | 02:39:54 | 221651 | 233629
28 | 51:55:05 | 02:02:17 | 233630 | 242796
29 | 53:57:22 | 02:23:66 | 242797 | 253587
30 | 56:21:13 | 03:45:66 | 253588 | 270528
31 | 60:07:04 | 02:20:29 | 270529 | 281057
32 | 62:27:33 | 01:41:26 | 281058 | 288658
33 | 64:08:59 | 03:27:57 | 288659 | 304240
34 | 67:36:41 | 00:22:57 | 304241 | 305947
35 | 67:59:23 | 00:22:58 | 305948 | 307655
36 | 68:22:06 | 00:55:28 | 307656 | 311808
37 | 69:17:34 | 00:37:08 | 311809 | 314591
38 | 69:54:42 | 00:47:12 | 314592 | 318128
39 | 70:41:54 | 00:44:48 | 318129 | 321476
40 | 71:26:27 | 01:01:31 | 321477 | 326082

AccurateRip Summary
Disc not found in AccurateRip DB.

All Tracks
Album gain : -5.01 dB
Peak : 0.999023
Statistics
Read error : 0
Jitter error (maybe fixed) : 0
Retry sector count : 138
Damaged sector count : 0

Track 01
Filename : /Users/kgpat/Desktop/Convert/BatmanCapedCrusadersFLAC/01 Neal Hefti - Classic Batman Main Title.flac
Pre-gap length : 00:02:00

Track gain : -6.20 dB
Peak : 0.999023
CRC32 hash : FC49D3A7
CRC32 hash (skip zero) : 7E8938B5
AccurateRip v1 signature : E56949AD
AccurateRip v2 signature : A94BE721
->Track not present in AccurateRip database.
Statistics
Read error : 0
Jitter error (maybe fixed) : 0
Retry sector count : 0
Damaged sector count : 0

Track 02
Filename : /Users/kgpat/Desktop/Convert/BatmanCapedCrusadersFLAC/02 McCuistion, Michael - Batman's New Look.flac
Pre-gap length : 00:02:00

Track gain : -5.09 dB
Peak : 0.841888
CRC32 hash : A8F10B05
CRC32 hash (skip zero) : 265BF176
AccurateRip v1 signature : F8988ACB
AccurateRip v2 signature : D45C4B47
->Track not present in AccurateRip database.
Statistics
Read error : 0
Jitter error (maybe fixed) : 0
Retry sector count : 0
Damaged sector count : 0

Track 03
Filename : /Users/kgpat/Desktop/Convert/BatmanCapedCrusadersFLAC/03 Michael McCuistion & Kristopher Carter - Meet Our Baddies/It's the Bat-Signal.flac
Pre-gap length : 00:02:00

Track gain : -3.33 dB
Peak : 0.846710
CRC32 hash : D208C3D2
CRC32 hash (skip zero) : 7CABE708
AccurateRip v1 signature : 088CC582
AccurateRip v2 signature : CF0F1FF1
->Track not present in AccurateRip database.
Statistics
Read error : 0
Jitter error (maybe fixed) : 0
Retry sector count : 0
Damaged sector count : 0

Track 04
Filename : /Users/kgpat/Desktop/Convert/BatmanCapedCrusadersFLAC/04 Neal Hefti - To the Batcave.flac
Pre-gap length : 00:02:00

Track gain : -5.00 dB
Peak : 0.998993
CRC32 hash : CB968AF3
CRC32 hash (skip zero) : 1FF94245
AccurateRip v1 signature : 8BF26ED2
AccurateRip v2 signature : 1026F7D8
->Track not present in AccurateRip database.
Statistics
Read error : 0
Jitter error (maybe fixed) : 0
Retry sector count : 0
Damaged sector count : 0

Track 05
Filename : /Users/kgpat/Desktop/Convert/BatmanCapedCrusadersFLAC/05 McCuistion, Michael - Not So Fast, Old Chum/Crosswalk Conundrum.flac
Pre-gap length : 00:02:00

Track gain : -5.09 dB
Peak : 0.800903
CRC32 hash : BCE39FE6
CRC32 hash (skip zero) : 9E12FE3A
AccurateRip v1 signature : D83EB133
AccurateRip v2 signature : DACD34CF
->Track not present in AccurateRip database.
Statistics
Read error : 0
Jitter error (maybe fixed) : 0
Retry sector count : 0
Damaged sector count : 0

Track 06
Filename : /Users/kgpat/Desktop/Convert/BatmanCapedCrusadersFLAC/06 Ritmanis, Lolita/Neal Hefti - Riddle Me This/Atomic Lab Fight.flac
Pre-gap length : 00:02:00

Track gain : -4.90 dB
Peak : 0.999023
CRC32 hash : 5D8706F1
CRC32 hash (skip zero) : E2821728
AccurateRip v1 signature : 7DF52261
AccurateRip v2 signature : 31571A38
->Track not present in AccurateRip database.
Statistics
Read error : 0
Jitter error (maybe fixed) : 0
Retry sector count : 0
Damaged sector count : 0

Track 07
Filename : /Users/kgpat/Desktop/Convert/BatmanCapedCrusadersFLAC/07 Ritmanis, Lolita - Jokermobile Chase.flac
Pre-gap length : 00:02:00

Track gain : -5.48 dB
Peak : 0.907349
CRC32 hash : 9862DE59
CRC32 hash (skip zero) : C42FE345
AccurateRip v1 signature : E3E97A48
AccurateRip v2 signature : A0F5ED4E
->Track not present in AccurateRip database.
Statistics
Read error : 0
Jitter error (maybe fixed) : 0
Retry sector count : 0
Damaged sector count : 0

Track 08
Filename : /Users/kgpat/Desktop/Convert/BatmanCapedCrusadersFLAC/08 Carter, Kristopher - Catwoman Has Batnip.flac
Pre-gap length : 00:02:00

Track gain : 1.39 dB
Peak : 0.830658
CRC32 hash : CD79FA2E
CRC32 hash (skip zero) : 3CBEAB67
AccurateRip v1 signature : 0D5079FB
AccurateRip v2 signature : ECED822A
->Track not present in AccurateRip database.
Statistics
Read error : 0
Jitter error (maybe fixed) : 0
Retry sector count : 0
Damaged sector count : 0

Track 09
Filename : /Users/kgpat/Desktop/Convert/BatmanCapedCrusadersFLAC/09 McCuistion, Michael - TV Dinner Factory Arrival.flac
Pre-gap length : 00:02:00

Track gain : -5.52 dB
Peak : 0.886993
CRC32 hash : 19787CB2
CRC32 hash (skip zero) : 35872F6C
AccurateRip v1 signature : 2B6E8260
AccurateRip v2 signature : DFB995ED
->Track not present in AccurateRip database.
Statistics
Read error : 0
Jitter error (maybe fixed) : 0
Retry sector count : 0
Damaged sector count : 0

Track 10
Filename : /Users/kgpat/Desktop/Convert/BatmanCapedCrusadersFLAC/10 Carter, Kristopher - TV Dinner Factory Kerfuffle/TV Tray Death Trap/Dessert Denouement.flac
Pre-gap length : 00:02:00

Track gain : -2.63 dB
Peak : 0.944427
CRC32 hash : B0620BAA
CRC32 hash (skip zero) : 275A7D05
AccurateRip v1 signature : 8215CDD7
AccurateRip v2 signature : 101DF40B
->Track not present in AccurateRip database.
Statistics
Read error : 0
Jitter error (maybe fixed) : 0
Retry sector count : 1
Damaged sector count : 0

Track 11
Filename : /Users/kgpat/Desktop/Convert/BatmanCapedCrusadersFLAC/11 Michael McCuistion, Kristopher Carter & Lolita Ritmanis - Establish Police HQ/The BatShadow Rises/A Moment with Aunt Harriet.flac
Pre-gap length : 00:02:00

Track gain : -3.56 dB
Peak : 0.870575
CRC32 hash : 8967E2CF
CRC32 hash (skip zero) : 5894CABE
AccurateRip v1 signature : ABF8E0BC
AccurateRip v2 signature : 123973B8
->Track not present in AccurateRip database.
Statistics
Read error : 0
Jitter error (maybe fixed) : 0
Retry sector count : 0
Damaged sector count : 0

Track 12
Filename : /Users/kgpat/Desktop/Convert/BatmanCapedCrusadersFLAC/12 Ritmanis, Lolita - In Search of Criminal Activity.flac
Pre-gap length : 00:02:00

Track gain : -4.38 dB
Peak : 0.985992
CRC32 hash : AFD998FE
CRC32 hash (skip zero) : FF445B4D
AccurateRip v1 signature : 6C389216
AccurateRip v2 signature : 259838A5
->Track not present in AccurateRip database.
Statistics
Read error : 0
Jitter error (maybe fixed) : 0
Retry sector count : 0
Damaged sector count : 0

Track 13
Filename : /Users/kgpat/Desktop/Convert/BatmanCapedCrusadersFLAC/13 McCuistion, Michael - Batcave Batmobile Arrival/To the Bat-Rocket.flac
Pre-gap length : 00:02:00

Track gain : -4.83 dB
Peak : 0.872711
CRC32 hash : C57144CB
CRC32 hash (skip zero) : ECDE0317
AccurateRip v1 signature : 830637E7
AccurateRip v2 signature : E08BC127
->Track not present in AccurateRip database.
Statistics
Read error : 0
Jitter error (maybe fixed) : 0
Retry sector count : 0
Damaged sector count : 0

Track 14
Filename : /Users/kgpat/Desktop/Convert/BatmanCapedCrusadersFLAC/14 Carter, Kristopher - The Right Bat Stuff/Space Joker Playon.flac
Pre-gap length : 00:02:00

Track gain : -5.72 dB
Peak : 0.848053
CRC32 hash : 33B38CC8
CRC32 hash (skip zero) : 66945D59
AccurateRip v1 signature : EB63ADB5
AccurateRip v2 signature : 1A01061C
->Track not present in AccurateRip database.
Statistics
Read error : 0
Jitter error (maybe fixed) : 0
Retry sector count : 0
Damaged sector count : 0

Track 15
Filename : /Users/kgpat/Desktop/Convert/BatmanCapedCrusadersFLAC/15 Ritmanis, Lolita - Bat-Rocket Approaches the Station.flac
Pre-gap length : 00:02:00

Track gain : -2.77 dB
Peak : 0.871735
CRC32 hash : 90B10B80
CRC32 hash (skip zero) : 24381E8D
AccurateRip v1 signature : F905CECB
AccurateRip v2 signature : 7FDAFCD6
->Track not present in AccurateRip database.
Statistics
Read error : 0
Jitter error (maybe fixed) : 0
Retry sector count : 0
Damaged sector count : 0

Track 16
Filename : /Users/kgpat/Desktop/Convert/BatmanCapedCrusadersFLAC/16 Michael McCuistion & Lolita Ritmanis - Outer Space Rendezvous/Under the Influence.flac
Pre-gap length : 00:02:00

Track gain : -3.75 dB
Peak : 0.900757
CRC32 hash : 370209CC
CRC32 hash (skip zero) : 8000F1D1
AccurateRip v1 signature : D4F051FB
AccurateRip v2 signature : 0EC626BE
->Track not present in AccurateRip database.
Statistics
Read error : 0
Jitter error (maybe fixed) : 0
Retry sector count : 0
Damaged sector count : 0

Track 17
Filename : /Users/kgpat/Desktop/Convert/BatmanCapedCrusadersFLAC/17 Carter, Kristopher - Zero-G Brawl.flac
Pre-gap length : 00:02:00

Track gain : -1.87 dB
Peak : 0.902466
CRC32 hash : 9B7BCAC9
CRC32 hash (skip zero) : 960309D9
AccurateRip v1 signature : 1A800868
AccurateRip v2 signature : 3BD743BC
->Track not present in AccurateRip database.
Statistics
Read error : 0
Jitter error (maybe fixed) : 0
Retry sector count : 0
Damaged sector count : 0

Track 18
Filename : /Users/kgpat/Desktop/Convert/BatmanCapedCrusadersFLAC/18 Michael McCuistion & Kristopher Carter - Like a Bat in the Night/Holy Hitchhiker, Robin.flac
Pre-gap length : 00:02:00

Track gain : 0.00 dB
Peak : 0.580627
CRC32 hash : 000861E6
CRC32 hash (skip zero) : 6E433C23
AccurateRip v1 signature : 26FC5111
AccurateRip v2 signature : 502BA852
->Track not present in AccurateRip database.
Statistics
Read error : 0
Jitter error (maybe fixed) : 0
Retry sector count : 0
Damaged sector count : 0

Track 19
Filename : /Users/kgpat/Desktop/Convert/BatmanCapedCrusadersFLAC/19 Michael McCuistion & Lolita Ritmanis - Bruce Snaps at Aunt/Back Alley Dirge.flac
Pre-gap length : 00:02:00

Track gain : -2.22 dB
Peak : 0.806427
CRC32 hash : 1CE2DA7F
CRC32 hash (skip zero) : 4A6FF680
AccurateRip v1 signature : 25DC9DFD
AccurateRip v2 signature : 8FF4506D
->Track not present in AccurateRip database.
Statistics
Read error : 0
Jitter error (maybe fixed) : 0
Retry sector count : 0
Damaged sector count : 0

Track 20
Filename : /Users/kgpat/Desktop/Convert/BatmanCapedCrusadersFLAC/20 Ritmanis, Lolita - Why Won't He Answer?.flac
Pre-gap length : 00:02:00

Track gain : -2.85 dB
Peak : 0.615662
CRC32 hash : 266A8DC0
CRC32 hash (skip zero) : E3D65311
AccurateRip v1 signature : 45A71BCC
AccurateRip v2 signature : A08DB1DE
->Track not present in AccurateRip database.
Statistics
Read error : 0
Jitter error (maybe fixed) : 0
Retry sector count : 0
Damaged sector count : 0

Track 21
Filename : /Users/kgpat/Desktop/Convert/BatmanCapedCrusadersFLAC/21 McCuistion, Michael - Gotham Crime Spree.flac
Pre-gap length : 00:02:00

Track gain : -5.73 dB
Peak : 0.880066
CRC32 hash : 60E94465
CRC32 hash (skip zero) : 51D8D139
AccurateRip v1 signature : 2B2B4FD4
AccurateRip v2 signature : C12AAE2A
->Track not present in AccurateRip database.
Statistics
Read error : 0
Jitter error (maybe fixed) : 0
Retry sector count : 0
Damaged sector count : 0

Track 22
Filename : /Users/kgpat/Desktop/Convert/BatmanCapedCrusadersFLAC/22 Michael McCuistion & Kristopher Carter - Bat Dupe See/Batmen Take Over/Robin Figures It Out.flac
Pre-gap length : 00:02:00

Track gain : -2.62 dB
Peak : 0.920624
CRC32 hash : 472F6AC8
CRC32 hash (skip zero) : 949A288F
AccurateRip v1 signature : 95B9DE81
AccurateRip v2 signature : 9A5A778F
->Track not present in AccurateRip database.
Statistics
Read error : 0
Jitter error (maybe fixed) : 0
Retry sector count : 0
Damaged sector count : 0

Track 23
Filename : /Users/kgpat/Desktop/Convert/BatmanCapedCrusadersFLAC/23 Ritmanis, Lolita - Catwoman Is in Her Element/To the Catmobile.flac
Pre-gap length : 00:02:00

Track gain : -2.99 dB
Peak : 0.885193
CRC32 hash : CEA7799C
CRC32 hash (skip zero) : 2ABE2BE7
AccurateRip v1 signature : 68EBB415
AccurateRip v2 signature : 11F4E4B9
->Track not present in AccurateRip database.
Statistics
Read error : 0
Jitter error (maybe fixed) : 0
Retry sector count : 0
Damaged sector count : 0

Track 24
Filename : /Users/kgpat/Desktop/Convert/BatmanCapedCrusadersFLAC/24 McCuistion, Michael - Batcave Showdown.flac
Pre-gap length : 00:02:00

Track gain : -4.30 dB
Peak : 0.868195
CRC32 hash : 20BA59A8
CRC32 hash (skip zero) : 0A61E24C
AccurateRip v1 signature : 6FDB5990
AccurateRip v2 signature : 15378E8D
->Track not present in AccurateRip database.
Statistics
Read error : 0
Jitter error (maybe fixed) : 0
Retry sector count : 0
Damaged sector count : 0

Track 25
Filename : /Users/kgpat/Desktop/Convert/BatmanCapedCrusadersFLAC/25 Michael McCuistion & Lolita Ritmanis - Radioactive Silo Trap/Bat Anti-Isotope Spray/Surprise Prison Inspection.flac
Pre-gap length : 00:02:00

Track gain : -5.44 dB
Peak : 0.895996
CRC32 hash : 11644755
CRC32 hash (skip zero) : 3D7FDC9D
AccurateRip v1 signature : C80A4908
AccurateRip v2 signature : 4C8EC167
->Track not present in AccurateRip database.
Statistics
Read error : 0
Jitter error (maybe fixed) : 0
Retry sector count : 0
Damaged sector count : 0

Track 26
Filename : /Users/kgpat/Desktop/Convert/BatmanCapedCrusadersFLAC/26 McCuistion, Michael - Mass Prison Break.flac
Pre-gap length : 00:02:00

Track gain : -5.48 dB
Peak : 0.837128
CRC32 hash : DCA7D5C2
CRC32 hash (skip zero) : C277D140
AccurateRip v1 signature : 7B1F88F0
AccurateRip v2 signature : CCE68CB0
->Track not present in AccurateRip database.
Statistics
Read error : 0
Jitter error (maybe fixed) : 0
Retry sector count : 0
Damaged sector count : 0

Track 27
Filename : /Users/kgpat/Desktop/Convert/BatmanCapedCrusadersFLAC/27 McCuistion, Michael/Neal Hefti - The Show Must Go On/Bat TV Two See.flac
Pre-gap length : 00:02:00

Track gain : -7.35 dB
Peak : 0.990082
CRC32 hash : B43173AF
CRC32 hash (skip zero) : 3F504B03
AccurateRip v1 signature : 7E244BFB
AccurateRip v2 signature : 99DFD40B
->Track not present in AccurateRip database.
Statistics
Read error : 0
Jitter error (maybe fixed) : 0
Retry sector count : 0
Damaged sector count : 0

Track 28
Filename : /Users/kgpat/Desktop/Convert/BatmanCapedCrusadersFLAC/28 Ritmanis, Lolita - Bad Batmen.flac
Pre-gap length : 00:02:00

Track gain : -4.37 dB
Peak : 0.909821
CRC32 hash : 6A4930FD
CRC32 hash (skip zero) : C78C2BBD
AccurateRip v1 signature : 864FF61B
AccurateRip v2 signature : E9C44EE0
->Track not present in AccurateRip database.
Statistics
Read error : 0
Jitter error (maybe fixed) : 0
Retry sector count : 0
Damaged sector count : 0

Track 29
Filename : /Users/kgpat/Desktop/Convert/BatmanCapedCrusadersFLAC/29 McCuistion, Michael - One Step Ahead.flac
Pre-gap length : 00:02:00

Track gain : -3.70 dB
Peak : 0.876587
CRC32 hash : F41A775B
CRC32 hash (skip zero) : E96F8A9E
AccurateRip v1 signature : 7A6C8954
AccurateRip v2 signature : F4533106
->Track not present in AccurateRip database.
Statistics
Read error : 0
Jitter error (maybe fixed) : 0
Retry sector count : 0
Damaged sector count : 0

Track 30
Filename : /Users/kgpat/Desktop/Convert/BatmanCapedCrusadersFLAC/30 Ritmanis, Lolita - Vilains Plan.flac
Pre-gap length : 00:02:00

Track gain : -5.58 dB
Peak : 0.894287
CRC32 hash : EBDD4534
CRC32 hash (skip zero) : 4562A6B0
AccurateRip v1 signature : 37B501A8
AccurateRip v2 signature : 5A44C9F3
->Track not present in AccurateRip database.
Statistics
Read error : 0
Jitter error (maybe fixed) : 0
Retry sector count : 0
Damaged sector count : 0

Track 31
Filename : /Users/kgpat/Desktop/Convert/BatmanCapedCrusadersFLAC/31 McCuistion, Michael - Airship Battle.flac
Pre-gap length : 00:02:00

Track gain : -5.44 dB
Peak : 0.893402
CRC32 hash : 85FDBA35
CRC32 hash (skip zero) : 8821272F
AccurateRip v1 signature : C5CE7146
AccurateRip v2 signature : 49408082
->Track not present in AccurateRip database.
Statistics
Read error : 0
Jitter error (maybe fixed) : 0
Retry sector count : 137
Damaged sector count : 0

Track 32
Filename : /Users/kgpat/Desktop/Convert/BatmanCapedCrusadersFLAC/32 Ritmanis, Lolita - Farewell Catwoman.flac
Pre-gap length : 00:02:00

Track gain : -1.87 dB
Peak : 0.774139
CRC32 hash : 06A9C1E4
CRC32 hash (skip zero) : E2B72051
AccurateRip v1 signature : DDC913C6
AccurateRip v2 signature : C3EF412D
->Track not present in AccurateRip database.
Statistics
Read error : 0
Jitter error (maybe fixed) : 0
Retry sector count : 0
Damaged sector count : 0

Track 33
Filename : /Users/kgpat/Desktop/Convert/BatmanCapedCrusadersFLAC/33 Neal Hefti - Classic Batman End Titles.flac
Pre-gap length : 00:02:00

Track gain : -6.59 dB
Peak : 0.999023
CRC32 hash : E128AD57
CRC32 hash (skip zero) : B16DD641
AccurateRip v1 signature : 9AA37802
AccurateRip v2 signature : C7790277
->Track not present in AccurateRip database.
Statistics
Read error : 0
Jitter error (maybe fixed) : 0
Retry sector count : 0
Damaged sector count : 0

Track 34
Filename : /Users/kgpat/Desktop/Convert/BatmanCapedCrusadersFLAC/34 McCuistion, Michael - Gotham Palace TV Theme.flac
Pre-gap length : 00:06:00

Track gain : -6.11 dB
Peak : 0.932709
CRC32 hash : 7131EAF7
CRC32 hash (skip zero) : B2916BDA
AccurateRip v1 signature : B7D5B609
AccurateRip v2 signature : 4659E88B
->Track not present in AccurateRip database.
Statistics
Read error : 0
Jitter error (maybe fixed) : 0
Retry sector count : 0
Damaged sector count : 0

Track 35
Filename : /Users/kgpat/Desktop/Convert/BatmanCapedCrusadersFLAC/35 Ritmanis, Lolita - Hector and the Hoedaddies.flac
Pre-gap length : 00:02:00

Track gain : -2.89 dB
Peak : 0.840698
CRC32 hash : FF0F492D
CRC32 hash (skip zero) : 46EA128C
AccurateRip v1 signature : FEBCCB94
AccurateRip v2 signature : BECA3C83
->Track not present in AccurateRip database.
Statistics
Read error : 0
Jitter error (maybe fixed) : 0
Retry sector count : 0
Damaged sector count : 0

Track 36
Filename : /Users/kgpat/Desktop/Convert/BatmanCapedCrusadersFLAC/36 McCuistion, Michael - Bedbugs TV Source.flac
Pre-gap length : 00:02:00

Track gain : -4.15 dB
Peak : 0.816284
CRC32 hash : 0A07D5A4
CRC32 hash (skip zero) : C2D67D7D
AccurateRip v1 signature : 4C7C0CA5
AccurateRip v2 signature : 2CCA8FF3
->Track not present in AccurateRip database.
Statistics
Read error : 0
Jitter error (maybe fixed) : 0
Retry sector count : 0
Damaged sector count : 0

Track 37
Filename : /Users/kgpat/Desktop/Convert/BatmanCapedCrusadersFLAC/37 McCuistion, Michael - Kitkat Cave Dancing.flac
Pre-gap length : 00:02:00

Track gain : -1.28 dB
Peak : 0.768951
CRC32 hash : EBB3C1C7
CRC32 hash (skip zero) : CD477F20
AccurateRip v1 signature : A96D0F98
AccurateRip v2 signature : 5CF429EE
->Track not present in AccurateRip database.
Statistics
Read error : 0
Jitter error (maybe fixed) : 0
Retry sector count : 0
Damaged sector count : 0

Track 38
Filename : /Users/kgpat/Desktop/Convert/BatmanCapedCrusadersFLAC/38 McCuistion, Michael - Gotham Palace TV Source #2.flac
Pre-gap length : 00:02:00

Track gain : -4.23 dB
Peak : 0.850433
CRC32 hash : A70BA37F
CRC32 hash (skip zero) : 8B78DBEF
AccurateRip v1 signature : 54B20E66
AccurateRip v2 signature : 55290D84
->Track not present in AccurateRip database.
Statistics
Read error : 0
Jitter error (maybe fixed) : 0
Retry sector count : 0
Damaged sector count : 0

Track 39
Filename : /Users/kgpat/Desktop/Convert/BatmanCapedCrusadersFLAC/39 Ritmanis, Lolita - Joker Circus.flac
Pre-gap length : 00:02:00

Track gain : -2.91 dB
Peak : 0.863098
CRC32 hash : C58B9F1D
CRC32 hash (skip zero) : 754EB871
AccurateRip v1 signature : CC7F9220
AccurateRip v2 signature : 19184A50
->Track not present in AccurateRip database.
Statistics
Read error : 0
Jitter error (maybe fixed) : 0
Retry sector count : 0
Damaged sector count : 0

Track 40
Filename : /Users/kgpat/Desktop/Convert/BatmanCapedCrusadersFLAC/40 Ritmanis, Lolita - Elegant Party Source.flac
Pre-gap length : 00:02:00

Track gain : -1.07 dB
Peak : 0.652222
CRC32 hash : B301F9B7
CRC32 hash (skip zero) : E67E4274
AccurateRip v1 signature : E31CAAD1
AccurateRip v2 signature : C578218A
->Track not present in AccurateRip database.
Statistics
Read error : 0
Jitter error (maybe fixed) : 0
Retry sector count : 0
Damaged sector count : 0

No errors occurred

End of status report
TITLE "Batman: Return of the Caped Crusaders"
REM GENRE "Soundtrack"
REM DATE "2016"
REM DISCNUMBER 1
REM TOTALDISCS 1
REM DISCID 5410FB28
REM REPLAYGAIN_ALBUM_GAIN -5.01 dB
REM REPLAYGAIN_ALBUM_PEAK 0.999023
REM COMPILATION TRUE
FILE "01 - Neal Hefti - Classic Batman Main Title.wav" WAVE
TRACK 01 AUDIO
TITLE "Classic Batman Main Title"
PERFORMER "Neal Hefti"
SONGWRITER "Neal Hefti"
REM REPLAYGAIN_TRACK_GAIN -6.20 dB
REM REPLAYGAIN_TRACK_PEAK 0.999023
INDEX 01 00:00:00
TRACK 02 AUDIO
TITLE "Batman's New Look"
PERFORMER "Michael McCuistion"
SONGWRITER "Michael McCuistion"
REM REPLAYGAIN_TRACK_GAIN -5.09 dB
REM REPLAYGAIN_TRACK_PEAK 0.841888
INDEX 00 01:24:28
FILE "02 - Michael McCuistion - Batman's New Look.wav" WAVE
INDEX 01 00:00:00
TRACK 03 AUDIO
TITLE "Meet Our Baddies / It's the Bat-Signal"
PERFORMER "Kristopher Carter and Michael McCuistion"
SONGWRITER "Kristopher Carter and Michael McCuistion"
REM REPLAYGAIN_TRACK_GAIN -3.33 dB
REM REPLAYGAIN_TRACK_PEAK 0.846710
INDEX 00 00:25:33
FILE "03 - Kristopher Carter and Michael McCuistion - Meet Our Baddies - It's the Bat-Signal.wav" WAVE
INDEX 01 00:00:00
TRACK 04 AUDIO
TITLE "To the Batcave"
PERFORMER "Neal Hefti"
SONGWRITER "Neal Hefti"
REM REPLAYGAIN_TRACK_GAIN -5.00 dB
REM REPLAYGAIN_TRACK_PEAK 0.998993
INDEX 00 02:21:61
FILE "04 - Neal Hefti - To the Batcave.wav" WAVE
INDEX 01 00:00:00
TRACK 05 AUDIO
TITLE "Not So Fast, Old Chum / Crosswalk Conundrum"
PERFORMER "Michael McCuistion"
SONGWRITER "Michael McCuistion"
REM REPLAYGAIN_TRACK_GAIN -5.09 dB
REM REPLAYGAIN_TRACK_PEAK 0.800903
INDEX 00 01:53:16
FILE "05 - Michael McCuistion - Not so Fast, Old Chum - Crosswalk Conundrum.wav" WAVE
INDEX 01 00:00:00
TRACK 06 AUDIO
TITLE "Riddle Me This? / Atomic Lab Fight"
PERFORMER "Lolita Ritmanis and Neal Hefti"
SONGWRITER "Lolita Ritmanis and Neal Hefti"
REM REPLAYGAIN_TRACK_GAIN -4.90 dB
REM REPLAYGAIN_TRACK_PEAK 0.999023
INDEX 00 00:29:49
FILE "06 - Lolita Ritmanis and Neal Hefti - Riddle Me This - Atomic Lab Fight.wav" WAVE
INDEX 01 00:00:00
TRACK 07 AUDIO
TITLE "Jokermobile Chase"
PERFORMER "Lolita Ritmanis"
SONGWRITER "Lolita Ritmanis"
REM REPLAYGAIN_TRACK_GAIN -5.48 dB
REM REPLAYGAIN_TRACK_PEAK 0.907349
INDEX 00 03:13:23
FILE "07 - Lolita Ritmanis - Jokermobile Chase.wav" WAVE
INDEX 01 00:00:00
TRACK 08 AUDIO
TITLE "Catwoman has Batnip"
PERFORMER "Kristopher Carter"
SONGWRITER "Kristopher Carter"
REM REPLAYGAIN_TRACK_GAIN 1.39 dB
REM REPLAYGAIN_TRACK_PEAK 0.830658
INDEX 00 01:49:33
FILE "08 - Kristopher Carter - Catwoman has Batnip.wav" WAVE
INDEX 01 00:00:00
TRACK 09 AUDIO
TITLE "TV Dinner Factory Arrival"
PERFORMER "Michael McCuistion"
SONGWRITER "Michael McCuistion"
REM REPLAYGAIN_TRACK_GAIN -5.52 dB
REM REPLAYGAIN_TRACK_PEAK 0.886993
INDEX 00 01:49:32
FILE "09 - Michael McCuistion - TV Dinner Factory Arrival.wav" WAVE
INDEX 01 00:00:00
TRACK 10 AUDIO
TITLE "TV Dinner Factory Kerfuffle / TV Tray Death Trap / Dessert Denouement"
PERFORMER "Kristopher Carter"
SONGWRITER "Kristopher Carter"
REM REPLAYGAIN_TRACK_GAIN -2.63 dB
REM REPLAYGAIN_TRACK_PEAK 0.944427
INDEX 00 01:24:17
FILE "10 - Kristopher Carter - TV Dinner Factory Kerfuffle - TV Tray Death Trap - Dessert Denouement.wav" WAVE
INDEX 01 00:00:00
TRACK 11 AUDIO
TITLE "Establish Police HQ / The BatShadow Rises / A Moment with Aunt Harriet / You're Dismissed"
PERFORMER "Kristopher Carter, Lolita Ritmanis, Michael McCuistion"
SONGWRITER "Kristopher Carter, Lolita Ritmanis, Michael McCuistion"
REM REPLAYGAIN_TRACK_GAIN -3.56 dB
REM REPLAYGAIN_TRACK_PEAK 0.870575
INDEX 00 04:31:21
FILE "11 - Kristopher Carter, Lolita Ritmanis, Michael McCuistion - Establish Police HQ - The BatShadow Rises - You're Dismissed.wav" WAVE
INDEX 01 00:00:00
TRACK 12 AUDIO
TITLE "In Search of Criminal Activity"
PERFORMER "Lolita Ritmanis"
SONGWRITER "Lolita Ritmanis"
REM REPLAYGAIN_TRACK_GAIN -4.38 dB
REM REPLAYGAIN_TRACK_PEAK 0.985992
INDEX 00 02:14:54
FILE "12 - Lolita Ritmanis - In Search of Criminal Activity.wav" WAVE
INDEX 01 00:00:00
TRACK 13 AUDIO
TITLE "Batcave Batmobile Arrival / To the Bat-Rocket"
PERFORMER "Michael McCuistion"
SONGWRITER "Michael McCuistion"
REM REPLAYGAIN_TRACK_GAIN -4.83 dB
REM REPLAYGAIN_TRACK_PEAK 0.872711
INDEX 00 01:10:34
FILE "13 - Michael McCuistion - Batcave Batmobile Arrival - To the Bat-Rocket.wav" WAVE
INDEX 01 00:00:00
TRACK 14 AUDIO
TITLE "The Right Bat Stuff / Space Joker Playon"
PERFORMER "Kristopher Carter"
SONGWRITER "Kristopher Carter"
REM REPLAYGAIN_TRACK_GAIN -5.72 dB
REM REPLAYGAIN_TRACK_PEAK 0.848053
INDEX 00 01:19:60
FILE "14 - Kristopher Carter - The Right Bat Stuff - Space Joker Playon.wav" WAVE
INDEX 01 00:00:00
TRACK 15 AUDIO
TITLE "Bat-Rocket Approaches the Station"
PERFORMER "Lolita Ritmanis"
SONGWRITER "Lolita Ritmanis"
REM REPLAYGAIN_TRACK_GAIN -2.77 dB
REM REPLAYGAIN_TRACK_PEAK 0.871735
INDEX 00 01:28:67
FILE "15 - Lolita Ritmanis - Bat-Rocket Approaches the Station.wav" WAVE
INDEX 01 00:00:00
TRACK 16 AUDIO
TITLE "Outer Space Rendezvous / Under the Influence"
PERFORMER "Michael McCuistion and Lolita Ritmanis"
SONGWRITER "Michael McCuistion and Lolita Ritmanis"
REM REPLAYGAIN_TRACK_GAIN -3.75 dB
REM REPLAYGAIN_TRACK_PEAK 0.900757
INDEX 00 01:20:65
FILE "16 - Michael McCuistion and Lolita Ritmanis - Outer Space Rendezvous - Under the Influence.wav" WAVE
INDEX 01 00:00:00
TRACK 17 AUDIO
TITLE "Zero-G Brawl"
PERFORMER "Kristopher Carter"
SONGWRITER "Kristopher Carter"
REM REPLAYGAIN_TRACK_GAIN -1.87 dB
REM REPLAYGAIN_TRACK_PEAK 0.902466
INDEX 00 03:33:39
FILE "17 - Kristopher Carter - Zero-G Brawl.wav" WAVE
INDEX 01 00:00:00
TRACK 18 AUDIO
TITLE "Like a Bat in the Night / Holy Hitchhiker, Robin"
PERFORMER "Kristopher Carter and Michael McCuistion"
SONGWRITER "Kristopher Carter and Michael McCuistion"
REM REPLAYGAIN_TRACK_GAIN 0.00 dB
REM REPLAYGAIN_TRACK_PEAK 0.580627
INDEX 00 02:29:30
FILE "18 - Kristopher Carter and Michael McCuistion - Like a Bat in the Night - Holy Hitchhiker, Robin.wav" WAVE
INDEX 01 00:00:00
TRACK 19 AUDIO
TITLE "Bruce Snaps at Aunt / Back Alley Dirge"
PERFORMER "Lolita Ritmanis and Michael McCuistion"
SONGWRITER "Lolita Ritmanis and Michael McCuistion"
REM REPLAYGAIN_TRACK_GAIN -2.22 dB
REM REPLAYGAIN_TRACK_PEAK 0.806427
INDEX 00 00:37:11
FILE "19 - Lolita Ritmanis and Michael McCuistion - Bruce Snaps at Aunt - Back Alley Dirge.wav" WAVE
INDEX 01 00:00:00
TRACK 20 AUDIO
TITLE "Why won't He Answer?"
PERFORMER "Lolita Ritmanis"
SONGWRITER "Lolita Ritmanis"
REM REPLAYGAIN_TRACK_GAIN -2.85 dB
REM REPLAYGAIN_TRACK_PEAK 0.615662
INDEX 00 01:02:71
FILE "20 - Lolita Ritmanis - Why won't He Answer.wav" WAVE
INDEX 01 00:00:00
TRACK 21 AUDIO
TITLE "Gotham Crime Spree"
PERFORMER "Michael McCuistion"
SONGWRITER "Michael McCuistion"
REM REPLAYGAIN_TRACK_GAIN -5.73 dB
REM REPLAYGAIN_TRACK_PEAK 0.880066
INDEX 00 00:33:31
FILE "21 - Michael McCuistion - Gotham Crime Spree.wav" WAVE
INDEX 01 00:00:00
TRACK 22 AUDIO
TITLE "Bat Dupe See / Batmen Take Over / Robin Figures it Out"
PERFORMER "Kristopher Carter and Michael McCuistion"
SONGWRITER "Kristopher Carter and Michael McCuistion"
REM REPLAYGAIN_TRACK_GAIN -2.62 dB
REM REPLAYGAIN_TRACK_PEAK 0.920624
INDEX 00 00:39:15
FILE "22 - Kristopher Carter and Michael McCuistion - Bat Dupe See - Batmen Take Over - Robin Figures it Out.wav" WAVE
INDEX 01 00:00:00
TRACK 23 AUDIO
TITLE "Catwoman is in Her Element / To the Catmobile"
PERFORMER "Lolita Ritmanis"
SONGWRITER "Lolita Ritmanis"
REM REPLAYGAIN_TRACK_GAIN -2.99 dB
REM REPLAYGAIN_TRACK_PEAK 0.885193
INDEX 00 03:39:01
FILE "23 - Lolita Ritmanis - Catwoman is in Her Element - To the Catmobile.wav" WAVE
INDEX 01 00:00:00
TRACK 24 AUDIO
TITLE "Batcave Showdown"
PERFORMER "Michael McCuistion"
SONGWRITER "Michael McCuistion"
REM REPLAYGAIN_TRACK_GAIN -4.30 dB
REM REPLAYGAIN_TRACK_PEAK 0.868195
INDEX 00 02:10:06
FILE "24 - Michael McCuistion - Batcave Showdown.wav" WAVE
INDEX 01 00:00:00
TRACK 25 AUDIO
TITLE "Radioactive Silo Trap / Bat Anti-Isotope Spray / Surprise Prison Inspection"
PERFORMER "Michael McCuistion and Lolita Ritmanis"
SONGWRITER "Michael McCuistion and Lolita Ritmanis"
REM REPLAYGAIN_TRACK_GAIN -5.44 dB
REM REPLAYGAIN_TRACK_PEAK 0.895996
INDEX 00 02:24:31
FILE "25 - Michael McCuistion and Lolita Ritmanis - Radioactive Silo Trap - Bat Anti-Isotope Spray - Surprise Prison Inspection.wav" WAVE
INDEX 01 00:00:00
TRACK 26 AUDIO
TITLE "Mass Prison Break"
PERFORMER "Michael McCuistion"
SONGWRITER "Michael McCuistion"
REM REPLAYGAIN_TRACK_GAIN -5.48 dB
REM REPLAYGAIN_TRACK_PEAK 0.837128
INDEX 00 02:45:49
FILE "26 - Michael McCuistion - Mass Prison Break.wav" WAVE
INDEX 01 00:00:00
TRACK 27 AUDIO
TITLE "The Show Must Go on / Bat TV Two See"
PERFORMER "Michael McCuistion and Neal Hefti"
SONGWRITER "Michael McCuistion and Neal Hefti"
REM REPLAYGAIN_TRACK_GAIN -7.35 dB
REM REPLAYGAIN_TRACK_PEAK 0.990082
INDEX 00 01:31:49
FILE "27 - Michael McCuistion and Neal Hefti - The Show Must Go on - Bat TV Two See.wav" WAVE
INDEX 01 00:00:00
TRACK 28 AUDIO
TITLE "Bad Batmen"
PERFORMER "Lolita Ritmanis"
SONGWRITER "Lolita Ritmanis"
REM REPLAYGAIN_TRACK_GAIN -4.37 dB
REM REPLAYGAIN_TRACK_PEAK 0.909821
INDEX 00 02:37:54
FILE "28 - Lolita Ritmanis - Bad Batmen.wav" WAVE
INDEX 01 00:00:00
TRACK 29 AUDIO
TITLE "One Step Ahead"
PERFORMER "Michael McCuistion"
SONGWRITER "Michael McCuistion"
REM REPLAYGAIN_TRACK_GAIN -3.70 dB
REM REPLAYGAIN_TRACK_PEAK 0.876587
INDEX 00 02:00:17
FILE "29 - Michael McCuistion - One Step Ahead.wav" WAVE
INDEX 01 00:00:00
TRACK 30 AUDIO
TITLE "Villains Plan"
PERFORMER "Lolita Ritmanis"
SONGWRITER "Lolita Ritmanis"
REM REPLAYGAIN_TRACK_GAIN -5.58 dB
REM REPLAYGAIN_TRACK_PEAK 0.894287
INDEX 00 02:21:66
FILE "30 - Lolita Ritmanis - Villains Plan.wav" WAVE
INDEX 01 00:00:00
TRACK 31 AUDIO
TITLE "Airship Battle"
PERFORMER "Michael McCuistion"
SONGWRITER "Michael McCuistion"
REM REPLAYGAIN_TRACK_GAIN -5.44 dB
REM REPLAYGAIN_TRACK_PEAK 0.893402
INDEX 00 03:43:66
FILE "31 - Michael McCuistion - Airship Battle.wav" WAVE
INDEX 01 00:00:00
TRACK 32 AUDIO
TITLE "Farewell Catwoman"
PERFORMER "Lolita Ritmanis"
SONGWRITER "Lolita Ritmanis"
REM REPLAYGAIN_TRACK_GAIN -1.87 dB
REM REPLAYGAIN_TRACK_PEAK 0.774139
INDEX 00 02:18:29
FILE "32 - Lolita Ritmanis - Farewell Catwoman.wav" WAVE
INDEX 01 00:00:00
TRACK 33 AUDIO
TITLE "Classic Batman End Titles"
PERFORMER "Neal Hefti"
SONGWRITER "Neal Hefti"
REM REPLAYGAIN_TRACK_GAIN -6.59 dB
REM REPLAYGAIN_TRACK_PEAK 0.999023
INDEX 00 01:39:26
FILE "33 - Neal Hefti - Classic Batman End Titles.wav" WAVE
INDEX 01 00:00:00
TRACK 34 AUDIO
TITLE "Gotham Palace TV Theme [Bonus Track]"
PERFORMER "Michael McCuistion"
SONGWRITER "Michael McCuistion"
REM REPLAYGAIN_TRACK_GAIN -6.11 dB
REM REPLAYGAIN_TRACK_PEAK 0.932709
INDEX 00 03:21:57
FILE "34 - Michael McCuistion - Gotham Palace TV Theme [Bonus Track].wav" WAVE
INDEX 01 00:00:00
TRACK 35 AUDIO
TITLE "Hector and the Hoedaddies [Bonus Track]"
PERFORMER "Lolita Ritmanis"
SONGWRITER "Lolita Ritmanis"
REM REPLAYGAIN_TRACK_GAIN -2.89 dB
REM REPLAYGAIN_TRACK_PEAK 0.840698
INDEX 00 00:20:57
FILE "35 - Lolita Ritmanis - Hector and the Hoedaddies [Bonus Track].wav" WAVE
INDEX 01 00:00:00
TRACK 36 AUDIO
TITLE "Bedbugs TV Source [Bonus Track]"
PERFORMER "Michael McCuistion"
SONGWRITER "Michael McCuistion"
REM REPLAYGAIN_TRACK_GAIN -4.15 dB
REM REPLAYGAIN_TRACK_PEAK 0.816284
INDEX 00 00:20:58
FILE "36 - Michael McCuistion - Bedbugs TV Source [Bonus Track].wav" WAVE
INDEX 01 00:00:00
TRACK 37 AUDIO
TITLE "Kitkat Cave Dancing [Bonus Track]"
PERFORMER "Michael McCuistion"
SONGWRITER "Michael McCuistion"
REM REPLAYGAIN_TRACK_GAIN -1.28 dB
REM REPLAYGAIN_TRACK_PEAK 0.768951
INDEX 00 00:53:28
FILE "37 - Michael McCuistion - Kitkat Cave Dancing [Bonus Track].wav" WAVE
INDEX 01 00:00:00
TRACK 38 AUDIO
TITLE "Gotham Palace TV Source #2 [Bonus Track]"
PERFORMER "Michael McCuistion"
SONGWRITER "Michael McCuistion"
REM REPLAYGAIN_TRACK_GAIN -4.23 dB
REM REPLAYGAIN_TRACK_PEAK 0.850433
INDEX 00 00:35:08
FILE "38 - Michael McCuistion - Gotham Palace TV Source #2 [Bonus Track].wav" WAVE
INDEX 01 00:00:00
TRACK 39 AUDIO
TITLE "Joker Circus [Bonus Track]"
PERFORMER "Lolita Ritmanis"
SONGWRITER "Lolita Ritmanis"
REM REPLAYGAIN_TRACK_GAIN -2.91 dB
REM REPLAYGAIN_TRACK_PEAK 0.863098
INDEX 00 00:45:12
FILE "39 - Lolita Ritmanis - Joker Circus [Bonus Track].wav" WAVE
INDEX 01 00:00:00
TRACK 40 AUDIO
TITLE "Elegant Party Source [Bonus Track]"
PERFORMER "Lolita Ritmanis"
SONGWRITER "Lolita Ritmanis"
REM REPLAYGAIN_TRACK_GAIN -1.07 dB
REM REPLAYGAIN_TRACK_PEAK 0.652222
INDEX 00 00:42:48
FILE "40 - Lolita Ritmanis - Elegant Party Source [Bonus Track].wav" WAVE
INDEX 01 00:00:00
picpicpic
Для увеличения картинки щелкните мышкой по превью

Этот торрент недоступен для скачивания без регистрации, однако доступен по публичной magnet-ссылке (источники с публичных трекеров). Перед использованием ссылки прочтите, пожалуйста Пользовательское соглашение, а также как можно дольше оставайтесь на раздаче! Для того, чтобы скачать сам торрент-файл (который видит больше источников), а также для того, чтобы поблагодарить релизера, вам необходимо зарегистрироваться. Если регистрироваться лень - вы можете также попробовать скачать релиз по нашим партнерским ссылкам ниже. Кроме того, зарегистрированным пользователям не показывается всплывающая реклама при скачивании.

[underverse.me].t82076.torrent
Трекер: Зарегистрирован   [ 02.05.2017 15:25 ]  

Статус: проверено (by garry at 02.05.2017 15:26)
Поблагодарили: пока никто не поблагодарил...
Тип торрента: публичный - доступные источники с открытых трекеров: 
Размер: 434 MB (занимает 0,1 DVDR, для записи нужно 1 болванка DVDR/RW)
 
 
Похожие темы
Форум Тема Автор Торрент Отв. Посл. сооб.
OST & Score - Movie (Score) Бэтмен: Начало | Темный рыцарь | Возрождение легенды / Batman Begins | The Dark Knight | Rises (by Hans Zimmer and James Newton Howard) (2005-2012) [iTunes AAC M4A, 256 kbps VBR] Web garry
2 | 0

0 | 2298

0

13.07.2012 18:27

OST & Score - Movie (Score) Бэтмен: Отвага и смелость / Batman: The Brave and the Bold (by Kristopher Carter, Lolita Ritmanis and Michael McCuistion) (2014 (2008-2011)) [MP3, 320 kbps] garry
2 | 0

0 | 1614

1

13.02.2014 18:49

OST & Score - Movie (Score) Бэтмен против Супермена: На заре справедливости | Лига справедливости / Batman v Superman: Dawn of Justice [Deluxe Edition] | Justice League (by Hans Zimmer, Junkie XL, Danny Elfman)... garry
2 | 0

0 | 1359

0

18.03.2016 19:46

OST & Score Movie, TV Show & Series, Game (Lossless) (Score) Бэтмен: Под колпаком / Batman: Under the Red Hood (by Christopher Drake) (2010) [FLAC (Tracks+.CUE), lossless] garry
2 | 0

0 | 2245

0

18.11.2010 12:15

# OST & Score Movie, TV Show & Series, Game (Lossless) (Score) Бэтмен | возвращается | навсегда / Batman | Returns | Forever (by Danny Elfman, Elliot Goldenthal) (1989-2012 (1989-1995)) [FLAC (Tracks+.CUE), lossless] garry
2 | 0

0 | 2516

0

10.01.2012 02:18

# OST & Score Movie, TV Show & Series, Game (Lossless) (Score) Бэтмен / Batman: The Animated Series, Volume 1-4 (by Shirley Walker, Lolita Ritmanis and Michael McCuistion) (2008-2016 (1992-1993)) [FLAC (Tracks+.CUE), lossless] garry
2 | 0

0 | 3868

0

03.11.2012 19:18

OST & Score Movie, TV Show & Series, Game (Lossless) (Score) Бэтмен: Маска Фантазма / Batman: Mask of the Phantasm (by Shirley Walker) (1993-2009) [FLAC (Tracks+.CUE), lossless] garry
3 | 0

0 | 1442

0

11.10.2014 09:22

OST & Score Movie, TV Show & Series, Game (Lossless) (Score) Бэтмен: Нападение на Аркхэм / Batman: Assault on Arkham (by Robert J. Kral) (2014) [FLAC (Tracks+.CUE), lossless] garry
2 | 0

0 | 1227

1

20.10.2014 09:19

OST & Score Movie, TV Show & Series, Game (Lossless) (Score) Бэтмен будущего: Возвращение Джокера / Batman Beyond: Return of the Joker (by Kristopher Carter) (2000) [FLAC (Tracks+.CUE), lossless] garry
2 | 0

0 | 1155

1

08.05.2015 13:56

OST & Score Movie, TV Show & Series, Game (Lossless) (Score) Бэтмен и тайна женщины-летучей мыши / Batman: Mystery of the Batwoman (by Lolita Ritmanis) (2016 (2003)) [FLAC (Tracks+.CUE), lossless] garry
3 | 0

0 | 1063

1

25.07.2016 10:29


Яндекс.Метрика powered by Sphinx


В Н И М А Н И Е
Сайт не распространяет и не хранит электронные версии произведений, а лишь бесплатно и без коммерческой выгоды (не требуя взамен платы,
SMS и т.д.) предоставляет доступ к создаваемому пользователями каталогу ссылок на торрент-файлы, которые содержат только списки хеш-сумм.
Убедительная просьба с жалобами обращаться напрямую к пользователю, разместившему торрент файл.

Вверх