Loading...
Error

(Hard Bop, Big Band) Slide Hampton - Jazz With A Twist & Explosion! (2001) [FLAC (Image+.CUE), Lossless]

Статистика раздачи
Размер:  389 MB   |    Зарегистрирован:  1 год 2 месяца   |    Скачан:  2 раза

Полного источника не было: 5 месяцев 7 дней

Сидов:  0  |  0 KB/s  ]   Личеров:  0  |  0 KB/s  ]

* - сиды/пиры с внешних источников

   
 
Автор Сообщение

Бишеп Пол:Муж

10-Май-2017 07:36

Slide Hampton - Jazz With A Twist & Explosion!

Жанр: Hard Bop, Big Band
Год выпуска: 2001
Источник: CD
Производитель диска: Atlantic/Collectables
Аудиокодек: FLAC
Тип рипа: Image+.CUE
Битрейт аудио: lossless
Продолжительность: 01:05:05


Треклист:
01. The Jazz Twist (02:35)
02. Mack The Knife (03:05)
03. Gorgeous George (02:11)
04. Strollin' (03:59)
05. The Barbarians (06:41)
06. Work Song (02:58)
07. Slide Slid (02:55)
08. Day In Day Out (04:38)
09. Red Top (06:18)
10. Revival (02:26)

Код:

Exact Audio Copy V1.0 beta 1 from 15. November 2010

EAC extraction logfile from 28. September 2011, 20:47

Slide Hampton / Jazz With A Twist/Explosion

Used drive  : ATAPI   DVD A  DH20A4P   Adapter: 1  ID: 0

Read mode               : Secure
Utilize accurate stream : Yes
Defeat audio cache      : Yes
Make use of C2 pointers : No

Read offset correction                      : 6
Overread into Lead-In and Lead-Out          : No
Fill up missing offset samples with silence : Yes
Delete leading and trailing silent blocks   : No
Null samples used in CRC calculations       : Yes
Used interface                              : Installed external ASPI interface

Used output format              : User Defined Encoder
Selected bitrate                : 1024 kBit/s
Quality                         : High
Add ID3 tag                     : No
Command line compressor         : C:\Program Files\Exact Audio Copy\Flac\flac.exe
Additional command line options : -5 -V -T "ARTIST=%a" -T "TITLE=%t" -T "ALBUM=%g" -T "DATE=%y" -T "TRACKNUMBER=%n" -T "GENRE=%m" -T "COMMENT=[oStereo.ru]" %s

TOC of the extracted CD

     Track |   Start  |  Length  | Start sector | End sector
    ---------------------------------------------------------
        1  |  0:00.00 |  2:34.17 |         0    |    11566   
        2  |  2:34.17 |  3:04.18 |     11567    |    25384   
        3  |  5:38.35 |  2:10.15 |     25385    |    35149   
        4  |  7:48.50 |  3:58.12 |     35150    |    53011   
        5  | 11:46.62 |  6:40.13 |     53012    |    83024   
        6  | 18:27.00 |  2:58.00 |     83025    |    96374   
        7  | 21:25.00 |  2:54.45 |     96375    |   109469   
        8  | 24:19.45 |  4:37.57 |    109470    |   130301   
        9  | 28:57.27 |  6:17.28 |    130302    |   158604   
       10  | 35:14.55 |  2:25.52 |    158605    |   169531   
       11  | 37:40.32 |  2:23.03 |    169532    |   180259   
       12  | 40:03.35 |  3:59.37 |    180260    |   198221   
       13  | 44:02.72 |  2:33.35 |    198222    |   209731   
       14  | 46:36.32 |  3:01.18 |    209732    |   223324   
       15  | 49:37.50 |  3:33.52 |    223325    |   239351   
       16  | 53:11.27 |  2:58.43 |    239352    |   252744   
       17  | 56:09.70 |  3:29.27 |    252745    |   268446   
       18  | 59:39.22 |  5:25.03 |    268447    |   292824   

Range status and errors

Selected range

     Filename D:\Slide Hampton - Jazz With A Twist, Explosion - 1962 - Atlantic.wav

     Peak level 99.9 %
     Extraction speed 0.2 X
     Range quality 100.0 %
     Test CRC 509B4738
     Copy CRC 509B4738
     Copy OK

No errors occurred

 
AccurateRip summary
 
Track  1  not present in database
Track  2  not present in database
Track  3  not present in database
Track  4  not present in database
Track  5  not present in database
Track  6  not present in database
Track  7  not present in database
Track  8  not present in database
Track  9  not present in database
Track 10  not present in database
Track 11  not present in database
Track 12  not present in database
Track 13  not present in database
Track 14  not present in database
Track 15  not present in database
Track 16  not present in database
Track 17  not present in database
Track 18  not present in database
 
None of the tracks are present in the AccurateRip database

End of status report

==== Log checksum 651B9468F6E91560503205AA66C703511A6EF4B2AAE5B538D60EEE18E110B6A5 ====

Код:

REM GENRE "Bop/Big Band"
REM DATE 1952
REM DISCID 020F4012
REM COMMENT "ExactAudioCopy v1.0b1"
PERFORMER "Slide Hampton"
TITLE "Jazz With A Twist/Explosion"
FILE "Slide Hampton - Jazz With A Twist, Explosion - 1962 - Atlantic.flac" WAVE
  TRACK 01 AUDIO
    TITLE "The Jazz Twist"
    PERFORMER "Slide Hampton"
    INDEX 01 00:00:00
  TRACK 02 AUDIO
    TITLE "Mack The Knife"
    PERFORMER "Slide Hampton"
    INDEX 00 02:31:67
    INDEX 01 02:34:17
  TRACK 03 AUDIO
    TITLE "Gorgeous George"
    PERFORMER "Slide Hampton"
    INDEX 00 05:36:10
    INDEX 01 05:38:35
  TRACK 04 AUDIO
    TITLE "Strollin'"
    PERFORMER "Slide Hampton"
    INDEX 00 07:46:17
    INDEX 01 07:48:50
  TRACK 05 AUDIO
    TITLE "The Barbarians"
    PERFORMER "Slide Hampton"
    INDEX 00 11:44:37
    INDEX 01 11:46:62
  TRACK 06 AUDIO
    TITLE "Work Song"
    PERFORMER "Slide Hampton"
    INDEX 00 18:24:45
    INDEX 01 18:27:00
  TRACK 07 AUDIO
    TITLE "Slide Slid"
    PERFORMER "Slide Hampton"
    INDEX 00 21:22:47
    INDEX 01 21:25:00
  TRACK 08 AUDIO
    TITLE "Day In Day Out"
    PERFORMER "Slide Hampton"
    INDEX 00 24:17:25
    INDEX 01 24:19:45
  TRACK 09 AUDIO
    TITLE "Red Top"
    PERFORMER "Slide Hampton"
    INDEX 00 28:55:02
    INDEX 01 28:57:27
  TRACK 10 AUDIO
    TITLE "Revival"
    PERFORMER "Slide Hampton"
    INDEX 00 35:12:30
    INDEX 01 35:14:55
  TRACK 11 AUDIO
    TITLE "Maria"
    PERFORMER "Slide Hampton"
    INDEX 00 37:38:07
    INDEX 01 37:40:32
  TRACK 12 AUDIO
    TITLE "Delilah"
    PERFORMER "Slide Hampton"
    INDEX 00 40:01:12
    INDEX 01 40:03:35
  TRACK 13 AUDIO
    TITLE "Begin The Beguine"
    PERFORMER "Slide Hampton"
    INDEX 00 44:00:52
    INDEX 01 44:02:72
  TRACK 14 AUDIO
    TITLE "Your Cheatin' Heart"
    PERFORMER "Slide Hampton"
    INDEX 00 46:34:05
    INDEX 01 46:36:32
  TRACK 15 AUDIO
    TITLE "Spanish Flier"
    PERFORMER "Slide Hampton"
    INDEX 00 49:35:20
    INDEX 01 49:37:50
  TRACK 16 AUDIO
    TITLE "Bye Bye Love"
    PERFORMER "Slide Hampton"
    INDEX 00 53:09:05
    INDEX 01 53:11:27
  TRACK 17 AUDIO
    TITLE "Love Letters"
    PERFORMER "Slide Hampton"
    INDEX 00 56:07:55
    INDEX 01 56:09:70
  TRACK 18 AUDIO
    TITLE "Slide's Blues"
    PERFORMER "Slide Hampton"
    INDEX 00 59:36:70
    INDEX 01 59:39:22

Этот торрент недоступен для скачивания без регистрации, однако доступен по публичной magnet-ссылке (источники с публичных трекеров). Перед использованием ссылки прочтите, пожалуйста Пользовательское соглашение, а также как можно дольше оставайтесь на раздаче! Для того, чтобы скачать сам торрент-файл (который видит больше источников), а также для того, чтобы поблагодарить релизера, вам необходимо зарегистрироваться. Если регистрироваться лень - вы можете также попробовать скачать релиз по нашим партнерским ссылкам ниже. Кроме того, зарегистрированным пользователям не показывается всплывающая реклама при скачивании.

[underverse.me].t82465.torrent
Трекер: Зарегистрирован   [ 10.05.2017 07:36 ]  

Статус: проверено (by Бишеп at 10.05.2017 07:36)
Поблагодарили: пока никто не поблагодарил...
Тип торрента: публичный - доступные источники с открытых трекеров: 
Размер: 389 MB (занимает 0,09 DVDR, для записи нужно 1 болванка DVDR/RW)
 
 
Похожие темы
Форум Тема Автор Торрент Отв. Посл. сооб.
Jazz (Lossless) (Hard Bop, Chamber Jazz) Randy Klein's Two Duos - What’s Next? (2012) [FLAC (Tracks+.CUE), lossless] NiiggazCPT
5 | 1

1 | 1000

2

21.11.2012 13:47

Jazz (Lossless) (Hard Bop, Jazz, Funk) Cannonball Adderley - Soul Zodiac (2008) [FLAC (Tracks+.Cue), Lossless] Бишеп
1 | 0

0 | 857

1

14.02.2017 11:56

Архив (блюз, джаз) (Hard bop, Soul-jazz, Jazz funk, Mainstream jazz, Jazz fusion) Eddie Harris - The Eddie Harris Anthology (1993) [MP3, 320 kbps] M-i-i-i-ke
0 | 0

1 | 6508

6

17.02.2011 14:46


Яндекс.Метрика powered by Sphinx


В Н И М А Н И Е
Сайт не распространяет и не хранит электронные версии произведений, а лишь бесплатно и без коммерческой выгоды (не требуя взамен платы,
SMS и т.д.) предоставляет доступ к создаваемому пользователями каталогу ссылок на торрент-файлы, которые содержат только списки хеш-сумм.
Убедительная просьба с жалобами обращаться напрямую к пользователю, разместившему торрент файл.

Вверх