Loading...
Error

(Blues Rock) Eric Gales - Live (2012) [FLAC (Tracks+.Cue), Lossless]

Статистика раздачи
Размер:  445 MB   |    Зарегистрирован:  1 год 1 месяц   |    Скачан:  2 раза

Полного источника не было: 2 месяца 21 день

Сидов:  0  |  0 KB/s  ]   Личеров:  0  |  0 KB/s  ]

* - сиды/пиры с внешних источников

   
 
Автор Сообщение

Бишеп Пол:Муж

12-Май-2017 09:26

Eric Gales - Live

Жанр: Blues Rock
Год выпуска: 2012
Источник: CD
Производитель диска: Blues Bureau International - BBU 2085
Аудиокодек: FLAC
Тип рипа: Tracks+.CUE
Битрейт аудио: lossless
Продолжительность: 01:14:43


Треклист:
01. The Open Road
02. Layin'Down The Blues
03. The Change In Me
04. Freedom From My Demons
05. Make It There
06. Me And My Guitar
07. Universal Peacepipe
08. The Liar
09. Dark Corners Of My Mind
10. Double Dippin'
11. Railroaded
12. Transformation
13. Retribution

Код:

Exact Audio Copy V1.0 beta 1 from 15. November 2010

EAC extraction logfile from 22. December 2013, 18:35

Eric Gales / Eric Gales Live

Used drive  : TSSTcorpCDDVDW SN-S083F   Adapter: 1  ID: 0

Read mode               : Secure
Utilize accurate stream : Yes
Defeat audio cache      : Yes
Make use of C2 pointers : No

Read offset correction                      : 6
Overread into Lead-In and Lead-Out          : No
Fill up missing offset samples with silence : Yes
Delete leading and trailing silent blocks   : No
Null samples used in CRC calculations       : Yes
Used interface                              : Native Win32 interface for Win NT & 2000
Gap handling                                : Appended to previous track

Used output format              : User Defined Encoder
Selected bitrate                : 768 kBit/s
Quality                         : High
Add ID3 tag                     : No
Command line compressor         : C:\Program Files (x86)\Exact Audio Copy\FLAC\FLAC.EXE
Additional command line options : -6 -V -T "ARTIST=%a" -T "TITLE=%t" -T "ALBUM=%g" -T "DATE=%y" -T "TRACKNUMBER=%n" -T "GENRE=%m" -T "COMMENT=%e" %j--picture="%i"%j %s -o %d

TOC of the extracted CD

     Track |   Start  |  Length  | Start sector | End sector
    ---------------------------------------------------------
        1  |  0:00.00 |  6:34.70 |         0    |    29619   
        2  |  6:34.70 |  4:49.66 |     29620    |    51360   
        3  | 11:24.61 |  6:52.14 |     51361    |    82274   
        4  | 18:17.00 |  8:32.03 |     82275    |   120677   
        5  | 26:49.03 |  5:40.31 |    120678    |   146208   
        6  | 32:29.34 |  4:23.62 |    146209    |   165995   
        7  | 36:53.21 |  5:43.49 |    165996    |   191769   
        8  | 42:36.70 |  9:38.29 |    191770    |   235148   
        9  | 52:15.24 |  6:51.16 |    235149    |   265989   
       10  | 59:06.40 |  3:08.22 |    265990    |   280111   
       11  | 62:14.62 |  7:25.52 |    280112    |   313538   
       12  | 69:40.39 |  5:01.08 |    313539    |   336121   

Track  1

     Filename C:\EACrips\01 - The Open Road.wav

     Pre-gap length  0:00:02.00

     Peak level 100.0 %
     Extraction speed 3.1 X
     Track quality 100.0 %
     Test CRC 8E8A6C54
     Copy CRC 8E8A6C54
     Accurately ripped (confidence 1)  [43E18AF6]
     Copy OK

Track  2

     Filename C:\EACrips\02 - Layin Down The Blues.wav

     Peak level 97.1 %
     Extraction speed 2.9 X
     Track quality 99.9 %
     Test CRC D36823B9
     Copy CRC D36823B9
     Accurately ripped (confidence 1)  [21B1F3F4]
     Copy OK

Track  3

     Filename C:\EACrips\03 - Change In Me.wav

     Peak level 100.0 %
     Extraction speed 3.9 X
     Track quality 100.0 %
     Test CRC B339EB1B
     Copy CRC B339EB1B
     Accurately ripped (confidence 1)  [A58849AE]
     Copy OK

Track  4

     Filename C:\EACrips\04 - Freedom From My Demons.wav

     Peak level 100.0 %
     Extraction speed 4.0 X
     Track quality 99.9 %
     Test CRC 57808730
     Copy CRC 57808730
     Accurately ripped (confidence 1)  [6F3E86B5]
     Copy OK

Track  5

     Filename C:\EACrips\05 - Make It There.wav

     Peak level 100.0 %
     Extraction speed 4.6 X
     Track quality 100.0 %
     Test CRC 6BB09C18
     Copy CRC 6BB09C18
     Accurately ripped (confidence 1)  [C941D440]
     Copy OK

Track  6

     Filename C:\EACrips\06 - Me And My Guitar.wav

     Peak level 100.0 %
     Extraction speed 4.7 X
     Track quality 100.0 %
     Test CRC 34C743C2
     Copy CRC 34C743C2
     Accurately ripped (confidence 1)  [B27034D1]
     Copy OK

Track  7

     Filename C:\EACrips\07 - Universal Peace Pipe.wav

     Peak level 100.0 %
     Extraction speed 4.3 X
     Track quality 99.9 %
     Test CRC 8170ABF7
     Copy CRC 8170ABF7
     Accurately ripped (confidence 1)  [37C61561]
     Copy OK

Track  8

     Filename C:\EACrips\08 - Wings Of Rock & Roll.wav

     Peak level 100.0 %
     Extraction speed 5.6 X
     Track quality 100.0 %
     Test CRC E7ABF953
     Copy CRC E7ABF953
     Accurately ripped (confidence 1)  [BCFA1216]
     Copy OK

Track  9

     Filename C:\EACrips\09 - The Liar.wav

     Peak level 100.0 %
     Extraction speed 5.8 X
     Track quality 100.0 %
     Test CRC 77B627B5
     Copy CRC 77B627B5
     Accurately ripped (confidence 1)  [B0372A1E]
     Copy OK

Track 10

     Filename C:\EACrips\10 - Double Dippin.wav

     Peak level 100.0 %
     Extraction speed 4.2 X
     Track quality 99.9 %
     Test CRC 155D550B
     Copy CRC 155D550B
     Accurately ripped (confidence 1)  [C951FAD7]
     Copy OK

Track 11

     Filename C:\EACrips\11 - Dark Corners Of My Mind.wav

     Peak level 100.0 %
     Extraction speed 6.2 X
     Track quality 100.0 %
     Test CRC 42B6A4BD
     Copy CRC 42B6A4BD
     Accurately ripped (confidence 1)  [21F92FBF]
     Copy OK

Track 12

     Filename C:\EACrips\12 - Retribution.wav

     Peak level 100.0 %
     Extraction speed 6.1 X
     Track quality 100.0 %
     Test CRC E6CFC02B
     Copy CRC E6CFC02B
     Accurately ripped (confidence 1)  [28BE0DA9]
     Copy OK

All tracks accurately ripped

No errors occurred

End of status report

==== Log checksum 5F18F523ABD3BC7951433ACDF6FC73371B2595F6727B205AC7A2553EF4281B92 ====

Код:

REM GENRE "Blues Rock"
REM DATE 2012
REM DISCID B611810C
REM COMMENT "ExactAudioCopy v1.0b1"
PERFORMER "Eric Gales"
TITLE "Eric Gales Live"
FILE "01 - The Open Road.wav" WAVE
  TRACK 01 AUDIO
    TITLE "The Open Road"
    PERFORMER "Eric Gales"
    ISRC USDNZ1201001
    FLAGS DCP
    INDEX 01 00:00:00
FILE "02 - Layin Down The Blues.wav" WAVE
  TRACK 02 AUDIO
    TITLE "Layin Down The Blues"
    PERFORMER "Eric Gales"
    ISRC USDNZ1201002
    FLAGS DCP
    INDEX 01 00:00:00
FILE "03 - Change In Me.wav" WAVE
  TRACK 03 AUDIO
    TITLE "Change In Me"
    PERFORMER "Eric Gales"
    ISRC USDNZ1201003
    FLAGS DCP
    INDEX 01 00:00:00
FILE "04 - Freedom From My Demons.wav" WAVE
  TRACK 04 AUDIO
    TITLE "Freedom From My Demons"
    PERFORMER "Eric Gales"
    ISRC USDNZ1201004
    FLAGS DCP
    INDEX 01 00:00:00
FILE "05 - Make It There.wav" WAVE
  TRACK 05 AUDIO
    TITLE "Make It There"
    PERFORMER "Eric Gales"
    ISRC USDNZ1201005
    FLAGS DCP
    INDEX 01 00:00:00
FILE "06 - Me And My Guitar.wav" WAVE
  TRACK 06 AUDIO
    TITLE "Me And My Guitar"
    PERFORMER "Eric Gales"
    ISRC USDNZ1201006
    FLAGS DCP
    INDEX 01 00:00:00
FILE "07 - Universal Peace Pipe.wav" WAVE
  TRACK 07 AUDIO
    TITLE "Universal Peace Pipe"
    PERFORMER "Eric Gales"
    ISRC USDNZ1201007
    FLAGS DCP
    INDEX 01 00:00:00
FILE "08 - Wings Of Rock & Roll.wav" WAVE
  TRACK 08 AUDIO
    TITLE "Wings Of Rock & Roll"
    PERFORMER "Eric Gales"
    ISRC USDNZ1201008
    FLAGS DCP
    INDEX 01 00:00:00
FILE "09 - The Liar.wav" WAVE
  TRACK 09 AUDIO
    TITLE "The Liar"
    PERFORMER "Eric Gales"
    ISRC USDNZ1201009
    FLAGS DCP
    INDEX 01 00:00:00
FILE "10 - Double Dippin.wav" WAVE
  TRACK 10 AUDIO
    TITLE "Double Dippin"
    PERFORMER "Eric Gales"
    ISRC USDNZ1201010
    FLAGS DCP
    INDEX 01 00:00:00
FILE "11 - Dark Corners Of My Mind.wav" WAVE
  TRACK 11 AUDIO
    TITLE "Dark Corners Of My Mind"
    PERFORMER "Eric Gales"
    ISRC USDNZ1201011
    FLAGS DCP
    INDEX 01 00:00:00
FILE "12 - Retribution.wav" WAVE
  TRACK 12 AUDIO
    TITLE "Retribution"
    PERFORMER "Eric Gales"
    ISRC USDNZ1201012
    FLAGS DCP
    INDEX 01 00:00:00

Этот торрент недоступен для скачивания без регистрации, однако доступен по публичной magnet-ссылке (источники с публичных трекеров). Перед использованием ссылки прочтите, пожалуйста Пользовательское соглашение, а также как можно дольше оставайтесь на раздаче! Для того, чтобы скачать сам торрент-файл (который видит больше источников), а также для того, чтобы поблагодарить релизера, вам необходимо зарегистрироваться. Если регистрироваться лень - вы можете также попробовать скачать релиз по нашим партнерским ссылкам ниже. Кроме того, зарегистрированным пользователям не показывается всплывающая реклама при скачивании.

[underverse.me].t82656.torrent
Трекер: Зарегистрирован   [ 15.05.2017 09:48 ]  

Статус: проверено (by Бишеп at 15.05.2017 09:48)
Поблагодарили: пока никто не поблагодарил...
Тип торрента: публичный - доступные источники с открытых трекеров: 
Размер: 445 MB (занимает 0,1 DVDR, для записи нужно 1 болванка DVDR/RW)
 
 
Похожие темы
Форум Тема Автор Торрент Отв. Посл. сооб.
Blues (Blues Rock) The Charlie Smith Blues Band - Steppin' Down Blues Lane (2012) [MP3, 320 kbps] Jimmy
1 | 0

0 | 1688

7

22.10.2012 13:29

Blues (Blues Rock) Straightup Blues Band - Ain't Got A Clue (2012) [MP3, 320 kbps] NiiggazCPT
1 | 0

0 | 1585

7

04.12.2012 17:39

Blues (Blues Rock) Billy Walton Band - Soul Of A Man (2018) [MP3, 320 kbps CBR] Darkferse
0 | 0

0 | 460

9

19.01.2018 08:56

Blues (Blues Rock) Foxtrot And The Get Down - Roots Too Deep (2017) [MP3, 320 kbps CBR] Darkferse
1 | 0

0 | 986

11

24.02.2017 09:57

Blues (Blues Rock) Tedeschi Trucks Band - Live From The Fox Oakland (2CD) (2017) [MP3, 320 kbps CBR] Darkferse
1 | 0

0 | 847

6

16.03.2017 22:59

Blues (Blues Rock) Robert Walker & the Century Band - Year of the Dog (2017) [MP3, 320 kbps CBR] Darkferse
2 | 0

0 | 700

9

30.03.2017 21:28

Blues (Blues Rock, Indie Rock) The Jibs - The Jibs (EP) (2017) [MP3, 320 kbps CBR] Darkferse
1 | 0

0 | 436

4

06.04.2017 14:02

Blues (Blues Rock) Beggars Blue - New Boots (2017) [MP3, 320 kbps CBR] Darkferse
1 | 0

0 | 814

3

06.04.2017 20:43

Blues (Blues Rock, Delta Blues) Little Hook - Little Hook (2017) [MP3, 320 kbps CBR] Darkferse
1 | 0

0 | 687

4

06.04.2017 20:49

Blues (Blues Rock) The Red Earth Blues Band - The Red Earth Blues Band (2017) [MP3, 320 kbps CBR] Darkferse
1 | 0

0 | 840

4

06.04.2017 20:54


Яндекс.Метрика powered by Sphinx


В Н И М А Н И Е
Сайт не распространяет и не хранит электронные версии произведений, а лишь бесплатно и без коммерческой выгоды (не требуя взамен платы,
SMS и т.д.) предоставляет доступ к создаваемому пользователями каталогу ссылок на торрент-файлы, которые содержат только списки хеш-сумм.
Убедительная просьба с жалобами обращаться напрямую к пользователю, разместившему торрент файл.

Вверх