Loading...
Error

(EBM, Synthpop) Massive Egо - Вeаutiful Suiсide (2017) [FLAC (Image+.CUE), lossless]

Статистика раздачи
Размер:  842 MB   |    Зарегистрирован:  1 год 1 месяц   |    Скачан:  2 раза

Полного источника не было: 1 год

Сидов:  0  |  0 KB/s  ]   Личеров:  0  |  0 KB/s  ]

* - сиды/пиры с внешних источников

   
 
Автор Сообщение

Darkferse Пол:Жен

21-Май-2017 13:06

Massive Egо - Вeаutiful Suiсide

Жанр: EBM, Synthpop
Год выпуска: 2017
Источник: CD
Производитель: Out Of Line - OUT851-852
Аудиокодек: FLAC
Тип рипа: Image+.CUE
Битрейт: lossless
Продолжительность: 01:51:01

Треклист:

CD1 (01:01:43)
01. Ghost In My Dream (Prologue) (1:15)
02. Low Life (feat. Maggie K DeMonde) (4:05)
03. She Uses Sex (3:54)
04. The Girl Who Finds Gifts From Crows (3:31)
05. Kate's In A State (3:36)
06. Let Go (4:25)
07. Haters Gonna Hate (feat. Belzebub) (3:32)
08. For The Blood In Your Veins (feat. Chris Pohl) (4:06)
09. I Idolize You (4:40)
10. Out Of Line (feat. Gene Serene) (4:54)
11. Coldest Light Of Day (4:57)
12. Where I Find Myself (4:28)
13. Drag Me In, Drag Me Under (5:04)
14. Beautiful Suicide (5:28)
15. I Idolize You (Orchestral Epilogue) (3:49)

CD2 (00:49:18)
01. Public Disorder (1:36)
02. Rise (4:49)
03. Dead Silence Rising (5:41)
04. Goodbye London (4:01)
05. Let Go (Blutengel remix) (4:33)
06. Let Go (Ashbury Heights remix) (4:03)
07. She Uses Sex (Chrom remix) (4:24)
08. Kate's In A State (Ludovico Technique remix) (3:46)
09. For The Blood In Your Veins (Nature Of Wires remix) (5:54)
10. For The Blood In Your Veins (Ash Code remix) (4:39)
11. Drag Me In, Drag Me Under (NeroArgento remix) (5:51)

Код:

Exact Audio Copy V1.1 from 23. June 2015

Отчёт EAC об извлечении, выполненном 24. апреля 2017, 15:15

Massive Ego / Beautiful Suicide

Дисковод: PIONEER DVD-RW  DVR-221L   Adapter: 1  ID: 0

Режим чтения                 : Достоверность
Использование точного потока : Да
Отключение кэша аудио        : Да
Использование указателей C2  : Нет

Коррекция смещения при чтении                     : 6
Способность читать области Lead-in и Lead-out     : Нет
Заполнение пропущенных сэмплов тишиной            : Да
Удаление блоков с тишиной в начале и конце        : Нет
При вычислениях CRC использовались нулевые сэмплы : Да
Интерфейс                                         : Встроенный Win32-интерфейс для Win NT/2000

Выходной формат          : Пользовательский кодировщик
Выбранный битрейт        : 1024 kBit/s
Качество                 : Высокий
Добавление ID3-тега      : Нет
Утилита сжатия           : C:\Program Files (x86)\Exact Audio Copy\Flac\flac.exe
Дополнительные параметры : -6 -V -s -T "Date=%year%" -T "Genre=%genre%" -T "COMMENT=ripped by kergarn special for New-Team.org"  %source%

TOC извлечённого CD

     Трек |   Старт  | Длительность | Начальный сектор | Конечный сектор
    ---------------------------------------------------------------------
       1  |  0:00.00 |    1:14.66   |           0      |       5615
       2  |  1:14.66 |    4:04.73   |        5616      |      23988
       3  |  5:19.64 |    3:54.34   |       23989      |      41572
       4  |  9:14.23 |    3:30.73   |       41573      |      57395
       5  | 12:45.21 |    3:35.47   |       57396      |      73567
       6  | 16:20.68 |    4:24.58   |       73568      |      93425
       7  | 20:45.51 |    3:31.50   |       93426      |     109300
       8  | 24:17.26 |    4:06.21   |      109301      |     127771
       9  | 28:23.47 |    4:40.00   |      127772      |     148771
      10  | 33:03.47 |    4:54.00   |      148772      |     170821
      11  | 37:57.47 |    4:57.03   |      170822      |     193099
      12  | 42:54.50 |    4:28.10   |      193100      |     213209
      13  | 47:22.60 |    5:03.56   |      213210      |     235990
      14  | 52:26.41 |    5:27.47   |      235991      |     260562
      15  | 57:54.13 |    3:49.05   |      260563      |     277742

Характеристики диапазона извлечения и сообщения об ошибках

Выбранный диапазон

     Имя файла D:\Massive Ego 2017-Beautiful Suicide (synth pop EBM industrial) [flac]\Disc1 - 1014318\Massive Ego - Beautiful Suicide.wav

     Пиковый уровень 100.0 %
     Скорость извлечения 4.6 X
     Качество диапазона 100.0 %
     CRC теста D4A7AC18
     CRC копии D4A7AC18
     Копирование... OK

Ошибок не произошло

AccurateRip: сводка

Трек  1  отсутствует в базе данных
Трек  2  отсутствует в базе данных
Трек  3  отсутствует в базе данных
Трек  4  отсутствует в базе данных
Трек  5  отсутствует в базе данных
Трек  6  отсутствует в базе данных
Трек  7  отсутствует в базе данных
Трек  8  отсутствует в базе данных
Трек  9  отсутствует в базе данных
Трек 10  отсутствует в базе данных
Трек 11  отсутствует в базе данных
Трек 12  отсутствует в базе данных
Трек 13  отсутствует в базе данных
Трек 14  отсутствует в базе данных
Трек 15  отсутствует в базе данных

Ни одного трека нет в базе AccurateRip

Конец отчёта

---- CUETools DB Plugin V2.1.6

[CTDB TOCID: 7zE1VClvLy0FNoiEmrESI7mKU.E-] found
Submit result: 7zE1VClvLy0FNoiEmrESI7mKU.E- has been confirmed
Track | CTDB Status
  1   | (1/1) Accurately ripped
  2   | (1/1) Accurately ripped
  3   | (1/1) Accurately ripped
  4   | (1/1) Accurately ripped
  5   | (1/1) Accurately ripped
  6   | (1/1) Accurately ripped
  7   | (1/1) Accurately ripped
  8   | (1/1) Accurately ripped
  9   | (1/1) Accurately ripped
 10   | (1/1) Accurately ripped
 11   | (1/1) Accurately ripped
 12   | (1/1) Accurately ripped
 13   | (1/1) Accurately ripped
 14   | (1/1) Accurately ripped
 15   | (1/1) Accurately ripped

==== Контрольная сумма отчёта D64A42F61D5DD4F79C05227D150A9C3530A8EA6310CAFB23E143C96AB4A3187A ====

Код:

Exact Audio Copy V1.1 from 23. June 2015

Отчёт EAC об извлечении, выполненном 24. апреля 2017, 16:02

Massive Ego / Beautiful Suicide

Дисковод: PIONEER DVD-RW  DVR-221L   Adapter: 1  ID: 0

Режим чтения                 : Достоверность
Использование точного потока : Да
Отключение кэша аудио        : Да
Использование указателей C2  : Нет

Коррекция смещения при чтении                     : 6
Способность читать области Lead-in и Lead-out     : Нет
Заполнение пропущенных сэмплов тишиной            : Да
Удаление блоков с тишиной в начале и конце        : Нет
При вычислениях CRC использовались нулевые сэмплы : Да
Интерфейс                                         : Встроенный Win32-интерфейс для Win NT/2000

Выходной формат          : Пользовательский кодировщик
Выбранный битрейт        : 1024 kBit/s
Качество                 : Высокий
Добавление ID3-тега      : Нет
Утилита сжатия           : C:\Program Files (x86)\Exact Audio Copy\Flac\flac.exe
Дополнительные параметры : -6 -V -s -T "Date=%year%" -T "Genre=%genre%" -T "COMMENT=ripped by kergarn special for New-Team.org"  %source%

TOC извлечённого CD

     Трек |   Старт  | Длительность | Начальный сектор | Конечный сектор
    ---------------------------------------------------------------------
       1  |  0:00.00 |    1:36.00   |           0      |       7199
       2  |  1:36.00 |    4:49.00   |        7200      |      28874
       3  |  6:25.00 |    5:41.19   |       28875      |      54468
       4  | 12:06.19 |    4:01.03   |       54469      |      72546
       5  | 16:07.22 |    4:33.33   |       72547      |      93054
       6  | 20:40.55 |    4:03.01   |       93055      |     111280
       7  | 24:43.56 |    4:24.23   |      111281      |     131103
       8  | 29:08.04 |    3:46.31   |      131104      |     148084
       9  | 32:54.35 |    5:53.51   |      148085      |     174610
      10  | 38:48.11 |    4:38.70   |      174611      |     195530
      11  | 43:27.06 |    5:50.61   |      195531      |     221841

Характеристики диапазона извлечения и сообщения об ошибках

Выбранный диапазон

     Имя файла D:\Massive Ego 2017-Beautiful Suicide (synth pop EBM industrial) [flac]\Disc2 - 491767\Massive Ego - Beautiful Suicide.wav

     Пиковый уровень 99.7 %
     Скорость извлечения 7.0 X
     Качество диапазона 100.0 %
     CRC теста 6AE265F9
     CRC копии 6AE265F9
     Копирование... OK

Ошибок не произошло

AccurateRip: сводка

Трек  1  отсутствует в базе данных
Трек  2  отсутствует в базе данных
Трек  3  отсутствует в базе данных
Трек  4  отсутствует в базе данных
Трек  5  отсутствует в базе данных
Трек  6  отсутствует в базе данных
Трек  7  отсутствует в базе данных
Трек  8  отсутствует в базе данных
Трек  9  отсутствует в базе данных
Трек 10  отсутствует в базе данных
Трек 11  отсутствует в базе данных

Ни одного трека нет в базе AccurateRip

Конец отчёта

---- CUETools DB Plugin V2.1.6

[CTDB TOCID: Ak0VbhbpkyHnA2srWrbWcxLyQ6M-] database access error: Невозможно разрешить удаленное имя: 'db.cuetools.net'

==== Контрольная сумма отчёта F562EC3ACC7DBC08EAC8A7AD5BB2E8E9714AC0529D4259BCCACE211B988CDBB5 ====
Exact Audio Copy V1.1 from 23. June 2015

Отчёт EAC об извлечении, выполненном 24. апреля 2017, 16:02

Massive Ego / Beautiful Suicide

Дисковод: PIONEER DVD-RW  DVR-221L   Adapter: 1  ID: 0

Режим чтения                 : Достоверность
Использование точного потока : Да
Отключение кэша аудио        : Да
Использование указателей C2  : Нет

Коррекция смещения при чтении                     : 6
Способность читать области Lead-in и Lead-out     : Нет
Заполнение пропущенных сэмплов тишиной            : Да
Удаление блоков с тишиной в начале и конце        : Нет
При вычислениях CRC использовались нулевые сэмплы : Да
Интерфейс                                         : Встроенный Win32-интерфейс для Win NT/2000

Выходной формат          : Пользовательский кодировщик
Выбранный битрейт        : 1024 kBit/s
Качество                 : Высокий
Добавление ID3-тега      : Нет
Утилита сжатия           : C:\Program Files (x86)\Exact Audio Copy\Flac\flac.exe
Дополнительные параметры : -6 -V -s -T "Date=%year%" -T "Genre=%genre%" -T "COMMENT=ripped by kergarn special for New-Team.org"  %source%

TOC извлечённого CD

     Трек |   Старт  | Длительность | Начальный сектор | Конечный сектор
    ---------------------------------------------------------------------
       1  |  0:00.00 |    1:36.00   |           0      |       7199
       2  |  1:36.00 |    4:49.00   |        7200      |      28874
       3  |  6:25.00 |    5:41.19   |       28875      |      54468
       4  | 12:06.19 |    4:01.03   |       54469      |      72546
       5  | 16:07.22 |    4:33.33   |       72547      |      93054
       6  | 20:40.55 |    4:03.01   |       93055      |     111280
       7  | 24:43.56 |    4:24.23   |      111281      |     131103
       8  | 29:08.04 |    3:46.31   |      131104      |     148084
       9  | 32:54.35 |    5:53.51   |      148085      |     174610
      10  | 38:48.11 |    4:38.70   |      174611      |     195530
      11  | 43:27.06 |    5:50.61   |      195531      |     221841

Характеристики диапазона извлечения и сообщения об ошибках

Выбранный диапазон

     Имя файла D:\Massive Ego 2017-Beautiful Suicide (synth pop EBM industrial) [flac]\Disc2 - 491767\Massive Ego - Beautiful Suicide.wav

     Пиковый уровень 99.7 %
     Скорость извлечения 7.0 X
     Качество диапазона 100.0 %
     CRC теста 6AE265F9
     CRC копии 6AE265F9
     Копирование... OK

Ошибок не произошло

AccurateRip: сводка

Трек  1  отсутствует в базе данных
Трек  2  отсутствует в базе данных
Трек  3  отсутствует в базе данных
Трек  4  отсутствует в базе данных
Трек  5  отсутствует в базе данных
Трек  6  отсутствует в базе данных
Трек  7  отсутствует в базе данных
Трек  8  отсутствует в базе данных
Трек  9  отсутствует в базе данных
Трек 10  отсутствует в базе данных
Трек 11  отсутствует в базе данных

Ни одного трека нет в базе AccurateRip

Конец отчёта

---- CUETools DB Plugin V2.1.6

[CTDB TOCID: Ak0VbhbpkyHnA2srWrbWcxLyQ6M-] database access error: Невозможно разрешить удаленное имя: 'db.cuetools.net'

==== Контрольная сумма отчёта F562EC3ACC7DBC08EAC8A7AD5BB2E8E9714AC0529D4259BCCACE211B988CDBB5 ====

Код:

REM GENRE "synth pop / EBM / industrial"
REM DATE 2017
REM DISCID EF0E770F
REM COMMENT "ExactAudioCopy v1.1"
CATALOG 4260158838511
PERFORMER "Massive Ego"
TITLE "Beautiful Suicide"
FILE "Massive Ego - Beautiful Suicide.flac" WAVE
  TRACK 01 AUDIO
    TITLE "Ghost In My Dream (Prologue)"
    PERFORMER "Massive Ego"
    ISRC DEBZ71700068
    INDEX 01 00:00:00
  TRACK 02 AUDIO
    TITLE "Low Life (feat. Maggie K DeMonde)"
    PERFORMER "Massive Ego"
    ISRC DEBZ71700069
    INDEX 01 01:14:66
  TRACK 03 AUDIO
    TITLE "She Uses Sex"
    PERFORMER "Massive Ego"
    ISRC DEBZ71700070
    INDEX 01 05:19:64
  TRACK 04 AUDIO
    TITLE "The Girl Who Finds Gifts From Crows"
    PERFORMER "Massive Ego"
    ISRC DEBZ71700071
    INDEX 01 09:14:23
  TRACK 05 AUDIO
    TITLE "Kate's In A State"
    PERFORMER "Massive Ego"
    ISRC DEBZ71700072
    INDEX 01 12:45:21
  TRACK 06 AUDIO
    TITLE "Let Go"
    PERFORMER "Massive Ego"
    ISRC DEBZ71700073
    INDEX 01 16:20:68
  TRACK 07 AUDIO
    TITLE "Haters Gonna Hate (feat. Belzebub)"
    PERFORMER "Massive Ego"
    ISRC DEBZ71700074
    INDEX 01 20:45:51
  TRACK 08 AUDIO
    TITLE "For The Blood In Your Veins (feat. Chris Pohl)"
    PERFORMER "Massive Ego"
    ISRC DEBZ71700075
    INDEX 01 24:17:26
  TRACK 09 AUDIO
    TITLE "I Idolize You"
    PERFORMER "Massive Ego"
    ISRC DEBZ71700076
    INDEX 01 28:23:47
  TRACK 10 AUDIO
    TITLE "Out Of Line (feat. Gene Serene)"
    PERFORMER "Massive Ego"
    ISRC DEBZ71700077
    INDEX 01 33:03:47
  TRACK 11 AUDIO
    TITLE "Coldest Light Of Day"
    PERFORMER "Massive Ego"
    ISRC DEBZ71700078
    INDEX 01 37:57:47
  TRACK 12 AUDIO
    TITLE "Where I Find Myself"
    PERFORMER "Massive Ego"
    ISRC DEBZ71700079
    INDEX 01 42:54:50
  TRACK 13 AUDIO
    TITLE "Drag Me In, Drag Me Under"
    PERFORMER "Massive Ego"
    ISRC DEBZ71700080
    INDEX 01 47:22:60
  TRACK 14 AUDIO
    TITLE "Beautiful Suicide"
    PERFORMER "Massive Ego"
    ISRC DEBZ71700081
    INDEX 01 52:26:41
  TRACK 15 AUDIO
    TITLE "I Idolize You (Orchestral Epilogue)"
    PERFORMER "Massive Ego"
    ISRC DEBZ71700082
    INDEX 01 57:54:13

Код:

REM GENRE "synth pop / EBM / industrial"
REM DATE 2017
REM DISCID A60B8D0B
REM COMMENT "ExactAudioCopy v1.1"
CATALOG 4260158838528
PERFORMER "Massive Ego"
TITLE "Beautiful Suicide"
FILE "Massive Ego - Beautiful Suicide.flac" WAVE
  TRACK 01 AUDIO
    TITLE "Public Disorder"
    PERFORMER "Massive Ego"
    ISRC DEBZ71700083
    INDEX 01 00:00:00
  TRACK 02 AUDIO
    TITLE "Rise"
    PERFORMER "Massive Ego"
    ISRC DEBZ71700084
    INDEX 01 01:36:00
  TRACK 03 AUDIO
    TITLE "Dead Silence Rising"
    PERFORMER "Massive Ego"
    ISRC DEBZ71700085
    INDEX 01 06:25:00
  TRACK 04 AUDIO
    TITLE "Goodbye London"
    PERFORMER "Massive Ego"
    ISRC DEBZ71700086
    INDEX 01 12:06:19
  TRACK 05 AUDIO
    TITLE "Let Go (Blutengel remix)"
    PERFORMER "Massive Ego"
    ISRC DEBZ71700088
    INDEX 01 16:07:22
  TRACK 06 AUDIO
    TITLE "Let Go (Ashbury Heights remix)"
    PERFORMER "Massive Ego"
    ISRC DEBZ71700089
    INDEX 01 20:40:55
  TRACK 07 AUDIO
    TITLE "She Uses Sex (Chrom remix)"
    PERFORMER "Massive Ego"
    ISRC DEBZ71700090
    INDEX 01 24:43:56
  TRACK 08 AUDIO
    TITLE "Kate's In A State (Ludovico Technique remix)"
    PERFORMER "Massive Ego"
    ISRC DEBZ71700091
    INDEX 01 29:08:04
  TRACK 09 AUDIO
    TITLE "For The Blood In Your Veins (Nature Of Wires remix)"
    PERFORMER "Massive Ego"
    ISRC DEBZ71700092
    INDEX 01 32:54:35
  TRACK 10 AUDIO
    TITLE "For The Blood In Your Veins (Ash Code remix)"
    PERFORMER "Massive Ego"
    ISRC DEBZ71700093
    INDEX 01 38:48:11
  TRACK 11 AUDIO
    TITLE "Drag Me In, Drag Me Under (NeroArgento remix)"
    PERFORMER "Massive Ego"
    ISRC DEBZ71700094
    INDEX 01 43:27:06

Этот торрент недоступен для скачивания без регистрации, однако доступен по публичной magnet-ссылке (источники с публичных трекеров). Перед использованием ссылки прочтите, пожалуйста Пользовательское соглашение, а также как можно дольше оставайтесь на раздаче! Для того, чтобы скачать сам торрент-файл (который видит больше источников), а также для того, чтобы поблагодарить релизера, вам необходимо зарегистрироваться. Если регистрироваться лень - вы можете также попробовать скачать релиз по нашим партнерским ссылкам ниже. Кроме того, зарегистрированным пользователям не показывается всплывающая реклама при скачивании.

[underverse.me].t82970.torrent
Трекер: Зарегистрирован   [ 21.05.2017 13:06 ]  

Статус: проверено (by Бишеп at 21.05.2017 20:07)
Поблагодарили: пока никто не поблагодарил...
Тип торрента: публичный - доступные источники с открытых трекеров: 
Размер: 842 MB (занимает 0,19 DVDR, для записи нужно 1 болванка DVDR/RW)
 
 
Похожие темы
Форум Тема Автор Торрент Отв. Посл. сооб.
EBM, Industrial, Dark Electro, Darkwave, Gothic Synth (EBM, Synthpop) Llumen - Cold In December (2016) [MP3, 320 kbps] ANDRAKO
1 | 0

0 | 453

3

27.12.2016 08:24

EBM, Industrial, Dark Electro, Darkwave, Gothic Synth (EBM, Synthpop) Entrzelle - Total Progressive Collapse (2016) [MP3, 320 kbps] ANDRAKO
2 | 0

0 | 405

2

27.12.2016 08:19

EBM, Industrial, Dark Electro, Darkwave, Gothic Synth (EBM, Synthpop) Para / Normal - The Cold Room (2015) [MP3, 320 kbps] ANDRAKO
1 | 0

0 | 341

5

28.11.2016 19:06

EBM, Industrial, Dark Electro, Darkwave, Gothic Synth (EBM, Synthpop, Techno) Xenturion Prime - Rise (EP) (2013) [MP3, 256 kbps VBR] ANDRAKO
2 | 0

0 | 476

3

22.12.2016 14:42

EBM, Industrial, Dark Electro, Darkwave, Gothic Synth (EBM, Synthpop, Futurepop) Espermachine - 3RD (2016) [MP3, 320 kbps] ANDRAKO
3 | 0

0 | 387

2

17.11.2016 17:40

EBM, Industrial, Dark Electro, Darkwave, Gothic Synth (EBM, Synthpop) Xenturion Prime - Mecha Rising (Limited Edition) (2014) [MP3, 320 kbps] ANDRAKO
2 | 0

0 | 291

2

07.11.2016 08:14

EBM, Industrial, Dark Electro, Darkwave, Gothic Synth (EBM, Synthpop, Darkwave) Scheuber - Changes (2017) [MP3, 320 kbps CBR] Darkferse
5 | 0

0 | 448

6

10.07.2017 08:57

EBM, Industrial, Dark Electro, Darkwave, Gothic Synth (EBM, Synthpop, Industrial) Leaether Strip - Spaectator (2016) [MP3, 320 kbps] ANDRAKO
1 | 0

0 | 411

4

06.01.2017 14:55

EBM, Industrial, Dark Electro, Darkwave, Gothic Synth (EBM, Synthpop) Underviewer - Wonders & Monsters (2016) [MP3, 320 kbps] ANDRAKO
1 | 0

0 | 445

2

07.01.2017 12:32

EBM, Industrial, Dark Electro, Darkwave, Gothic Synth (EBM, Synthpop, Industrial) Llumen - The Memory Institute (Limited Edition) (2017) [MP3, 220-260 kbps VBR] ANDRAKO
0 | 0

0 | 626

5

16.01.2017 08:14


Яндекс.Метрика powered by Sphinx


В Н И М А Н И Е
Сайт не распространяет и не хранит электронные версии произведений, а лишь бесплатно и без коммерческой выгоды (не требуя взамен платы,
SMS и т.д.) предоставляет доступ к создаваемому пользователями каталогу ссылок на торрент-файлы, которые содержат только списки хеш-сумм.
Убедительная просьба с жалобами обращаться напрямую к пользователю, разместившему торрент файл.

Вверх