Loading...
Error

Рико, Оскар и дело о разбитом сердце / Rico, Oskar und das Herzgebreche ( Вольфганг Гроос) [2015 г., комедия, приключения, семейный, HDRip] VO (tornado) + Original + Sub

Статистика раздачи
Размер:  1,47 GB   |    Зарегистрирован:  7 месяцев   |    Скачан:  1 раз
Сидов:  1  |  0 KB/s  ]   Личеров:  0  |  0 KB/s  ]

* - сиды/пиры с внешних источников

   
 
Автор Сообщение

makkol Пол:Муж

28-Май-2017 11:05

Рико, Оскар и дело о разбитом сердце / Rico, Oskar und das Herzgebreche


Год выпуска: 2015
Жанр: комедия, приключения, семейный
Производство: Германия [Fox International Productions, Lieblingsfilm]
Режиссер: Вольфганг Гроос
В ролях: Антон Петцольд, Юрий Уинклер, Каролина Херфурт, Хенри Хюбхен, Мориц Бляйбтрой, Катарина Тальбах, Рональд Церфельд, Милан Пешель, Урсела Монн, Гения Рикова
Сюжет фильма:
Рико и его друг Оскар теперь знаменитые детективы своего города. И все потому, что удалось вычислить и поймать знаменитого похитителя детей "Мистера 2000". Но это уже в прошлом. Тем более и их жизнь стала понемногу меняться. Так мама Рико выходит замуж, а значит, в его семье появился отец. И Оскар решил заменить шлем на солнцезащитные очки. Однако все эти изменения не остудили в наших героях интерес ко всему подозрительному. Теперь у них появился интерес к заведению "Бинго"…

  • Мировая премьера: 11 июня 2015


Качество видео: HDRip

Продолжительность: 01:34:57
Формат: AVI
Видео: XviD, 720x304 (2.35:1), 23.976 fps, 1562 kbps
Аудио #1: русский, любительский одноголосый закадровый (tornado), AC3 2.0, 48 kHz, 192 kbps
Аудио #2: немецкий, оригинал, AC3 5.1, 48 kHz, 448 kbps
Субтитры: русские (djleninn), английские, немецкие внешние, SRT

Код:

Формат                                   : AVI
Формат/Информация                        : Audio Video Interleave
Размер файла                             : 1,47 Гбайт
Продолжительность                        : 1 ч. 34 м.
Общий поток                              : 2216 Кбит/сек
Программа кодирования                    : VirtualDubModRus 1.5.10.2 (build 2542/release)
Библиотека кодирования                   : VirtualDubMod build 2542/release

Видео
Идентификатор                            : 0
Формат                                   : MPEG-4 Visual
Профиль формата                          : Advanced Simple@L5
Параметр BVOP формата                    : 2
Параметр QPel формата                    : Нет
Параметр GMC формата                     : Без точки перехода
Параметр матрицы формата                 : Default (MPEG)
Идентификатор кодека                     : XVID
Идентификатор кодека/Подсказка           : XviD
Продолжительность                        : 1 ч. 34 м.
Битрейт                                  : 1562 Кбит/сек
Ширина                                   : 720 пикселей
Высота                                   : 304 пикселя
Соотношение сторон                       : 2,35:1
Частота кадров                           : 23,976 кадра/сек
Цветовое пространство                    : YUV
Субдискретизация насыщенности            : 4:2:0
Битовая глубина                          : 8 бит
Тип развёртки                            : Прогрессивная
Метод сжатия                             : С потерями
Бит/(Пиксели*Кадры)                      : 0.298
Размер потока                            : 1,04 Гбайт (70%)
Библиотека кодирования                   : XviD 67

Аудио #1
Идентификатор                            : 1
Формат                                   : AC-3
Формат/Информация                        : Audio Coding 3
Расширение режима                        : CM (complete main)
Параметр Endianness формата              : Big
Идентификатор кодека                     : 2000
Продолжительность                        : 1 ч. 34 м.
Вид битрейта                             : Постоянный
Битрейт                                  : 192 Кбит/сек
Каналы                                   : 2 канала
Расположение каналов                     : Front: L R
Частота                                  : 48,0 КГц
Метод сжатия                             : С потерями
Размер потока                            : 130 Мбайт (9%)
Выравнивание                             : Разделение по промежуткам
Продолжительность промежутка             : 42  мс. (1,00 видеокадр)
Время предзагрузки промежутка            : 500  мс.

Аудио #2
Идентификатор                            : 2
Формат                                   : AC-3
Формат/Информация                        : Audio Coding 3
Расширение режима                        : CM (complete main)
Параметр Endianness формата              : Big
Идентификатор кодека                     : 2000
Продолжительность                        : 1 ч. 34 м.
Вид битрейта                             : Постоянный
Битрейт                                  : 448 Кбит/сек
Каналы                                   : 6 каналов
Расположение каналов                     : Front: L C R, Side: L R, LFE
Частота                                  : 48,0 КГц
Метод сжатия                             : С потерями
Размер потока                            : 304 Мбайт (20%)
Выравнивание                             : Разделение по промежуткам
Продолжительность промежутка             : 42  мс. (1,00 видеокадр)
Время предзагрузки промежутка            : 500  мс.
picpicpicpicpic
Для увеличения картинки щелкните мышкой по превью

Этот торрент недоступен для скачивания без регистрации, однако доступен по публичной magnet-ссылке (источники с публичных трекеров). Перед использованием ссылки прочтите, пожалуйста Пользовательское соглашение, а также как можно дольше оставайтесь на раздаче! Для того, чтобы скачать сам торрент-файл (который видит больше источников), а также для того, чтобы поблагодарить релизера, вам необходимо зарегистрироваться. Если регистрироваться лень - вы можете также попробовать скачать релиз по нашим партнерским ссылкам ниже. Кроме того, зарегистрированным пользователям не показывается всплывающая реклама при скачивании.

[underverse.me].t83308.torrent
Трекер: Зарегистрирован   [ 02.11.2017 11:09 ]  

Статус: проверено (by makkol at 02.11.2017 11:10)
Поблагодарили: пока никто не поблагодарил...
Тип торрента: публичный - доступные источники с открытых трекеров: 
Размер: 1,47 GB (занимает 0,34 DVDR, для записи нужно 1 болванка DVDR/RW)
 
 

02-Ноя-2017 11:09

Топик был перенесен из форума Popular feature films в форум Зарубежное кино [DVDRip, Low-Res HDRip, и т.д.]


makkol
 

Яндекс.Метрика powered by Sphinx


В Н И М А Н И Е
Сайт не распространяет и не хранит электронные версии произведений, а лишь бесплатно и без коммерческой выгоды (не требуя взамен платы,
SMS и т.д.) предоставляет доступ к создаваемому пользователями каталогу ссылок на торрент-файлы, которые содержат только списки хеш-сумм.
Убедительная просьба с жалобами обращаться напрямую к пользователю, разместившему торрент файл.

Вверх