Loading...
Error

Лавинг / Loving (Джефф Николс) [2016 г., драма, биография, BDRip] Dub

Статистика раздачи
Размер:  2,18 GB   |    Зарегистрирован:  1 год   |    Скачан:  0 раз

Полного источника не было: Никогда

Сидов:  0  |  0 KB/s  ]   Личеров:  0  |  0 KB/s  ]

* - сиды/пиры с внешних источников

   
 
Автор Сообщение

makkol Пол:Муж

28-Май-2017 11:46

Лавинг / Loving


Год выпуска: 2016
Жанр: драма, биография
Производство: Великобритания , США [Big Beach Films, Raindog Films]
Режиссер: Джефф Николс
В ролях: Рут Негга, Джоэл Эдгертон, Уилл Далтон, Дин Мамфорд, Терри Эбни, Алано Миллер, Крис Дж., Бенжамин Букер
Сюжет фильма:
Фильм посвящен реальной истории, произошедшей в 50-е годы в США, когда ещё были сильны расовые предрассудки. Межрасовые браки во многих штатах не приветствовались, но в Вирджинии пошли ещё дальше – там дело дошло до тюрьмы и последующего изгнания. Но семейная пара Ричарда и Милдред Лавин не сдались, и решили отстаивать свои права, дойдя в итоге до Верховного суда.

  • Мировая премьера: 16 мая 2016


Качество видео: BDRip [исх. BDRemux 1080p]

Продолжительность: 02:03:01
Формат: AVI
Видео: XviD, 720x304 (2.35:1), 23.976 fps, 2080 kbps
Аудио: русский, дублированный (лицензия BD CEE), AC3 5.1, 448 kbps
Субтитры: русские (форсированные) внешние

Код:

Формат                                   : AVI
Формат/Информация                        : Audio Video Interleave
Профиль формата                          : OpenDML
Размер файла                             : 2,18 Гбайт
Продолжительность                        : 2 ч. 3 м.
Общий поток                              : 2540 Кбит/сек
Программа кодирования                    : VirtualDubMod 1.5.10.2 (build 2540/release)
Библиотека кодирования                   : VirtualDubMod build 2540/release

Видео
Идентификатор                            : 0
Формат                                   : MPEG-4 Visual
Профиль формата                          : Advanced Simple@L5
Параметр BVOP формата                    : 1
Параметр QPel формата                    : Нет
Параметр GMC формата                     : Без точки перехода
Параметр матрицы формата                 : Выборочная
Идентификатор кодека                     : XVID
Идентификатор кодека/Подсказка           : XviD
Продолжительность                        : 2 ч. 3 м.
Битрейт                                  : 2080 Кбит/сек
Ширина                                   : 720 пикселей
Высота                                   : 304 пикселя
Соотношение сторон                       : 2,35:1
Частота кадров                           : 23,976 (24000/1001) кадра/сек
Цветовое пространство                    : YUV
Субдискретизация насыщенности            : 4:2:0
Битовая глубина                          : 8 бит
Тип развёртки                            : Прогрессивная
Метод сжатия                             : С потерями
Бит/(Пиксели*Кадры)                      : 0.396
Размер потока                            : 1,79 Гбайт (82%)
Библиотека кодирования                   : XviD 73

Аудио
Идентификатор                            : 1
Формат                                   : AC-3
Формат/Информация                        : Audio Coding 3
Параметр Endianness формата              : Big
Идентификатор кодека                     : 2000
Продолжительность                        : 2 ч. 3 м.
Вид битрейта                             : Постоянный
Битрейт                                  : 448 Кбит/сек
Каналы                                   : 6 каналов
Расположение каналов                     : Front: L C R, Side: L R, LFE
Частота                                  : 48,0 КГц
Частота кадров                           : 31,250 кадров/сек (1536 spf)
Битовая глубина                          : 16 бит
Метод сжатия                             : С потерями
Размер потока                            : 394 Мбайт (18%)
Выравнивание                             : Разделение по промежуткам
Продолжительность промежутка             : 42  мс. (1,00 видеокадр)
Время предзагрузки промежутка            : 500  мс.
ServiceKind/String                       : Complete Main
Релиз:

picpicpicpicpic
Для увеличения картинки щелкните мышкой по превью

Этот торрент недоступен для скачивания без регистрации, однако доступен по публичной magnet-ссылке (источники с публичных трекеров). Перед использованием ссылки прочтите, пожалуйста Пользовательское соглашение, а также как можно дольше оставайтесь на раздаче! Для того, чтобы скачать сам торрент-файл (который видит больше источников), а также для того, чтобы поблагодарить релизера, вам необходимо зарегистрироваться. Если регистрироваться лень - вы можете также попробовать скачать релиз по нашим партнерским ссылкам ниже. Кроме того, зарегистрированным пользователям не показывается всплывающая реклама при скачивании.

[underverse.me].t83311.torrent
Трекер: Зарегистрирован   [ 28.05.2017 11:46 ]  

Статус: проверено (by makkol at 28.05.2017 11:47)
Поблагодарили: пока никто не поблагодарил...
Тип торрента: публичный - доступные источники с открытых трекеров: 
Размер: 2,18 GB (занимает 1/2 DVDR, для записи нужно 1 болванка DVDR/RW)
 
 
Похожие темы
Форум Тема Автор Торрент Отв. Посл. сооб.
Зарубежное кино [DVDRip, Low-Res HDRip, и т.д.] Лавинг / Loving (Джефф Николс) [2016 г., драма, биография, BDRip] Dub makkol
2 | 0

0 | 378

1

28.05.2017 11:35

T Зарубежное кино [DVDRip, Low-Res HDRip, и т.д.] Лавинг / Loving (Джефф Николс / Jeff Nichols) [2016 г., драма, биография, WEB-DLRip] MVO (@MUZOBOZ@) 90ytr90
5 | 0

0 | 891

6

27.01.2017 18:25

T Зарубежное кино [HDDVDRip / BDRip / WEB-DL / HDTV 1080/720р] Лавинг / Loving (Джефф Николс / Jeff Nichols) [2016 г., драма, биография, WEB-DLRip 720р] MVO (@MUZOBOZ@) 90ytr90
1 | 0

0 | 919

7

27.01.2017 18:34

Зарубежное кино [HDDVDRip / BDRip / WEB-DL / HDTV 1080/720р] Лавинг / Loving (Джефф Николс) [2016 г., драма, биография, BDRip 1080p] Dub + Original + Sub makkol
1 | 0

0 | 543

3

28.05.2017 12:05

Архив (зарубежное кино высокого качества) Лавинг / Loving (Джефф Николс) [2016 г., драма, биография, BDRip 720p] Dub + Original + Sub makkol
1 | 0

1 | 484

2

31.01.2018 18:42


Яндекс.Метрика powered by Sphinx


В Н И М А Н И Е
Сайт не распространяет и не хранит электронные версии произведений, а лишь бесплатно и без коммерческой выгоды (не требуя взамен платы,
SMS и т.д.) предоставляет доступ к создаваемому пользователями каталогу ссылок на торрент-файлы, которые содержат только списки хеш-сумм.
Убедительная просьба с жалобами обращаться напрямую к пользователю, разместившему торрент файл.

Вверх