Loading...
Error

(EBM, Electro Industrial) Funker Vogt - Code Of Conduct (Limited Edition) (2017) [FLAC (Tracks+.CUE), lossless]

Статистика раздачи
Размер:  529 MB   |    Зарегистрирован:  1 год   |    Скачан:  1 раз

Полного источника не было: 1 месяц 20 дней

Сидов:  0  |  0 KB/s  ]   Личеров:  0  |  0 KB/s  ]

* - сиды/пиры с внешних источников

   
 
Автор Сообщение

Darkferse Пол:Жен

12-Июн-2017 13:57

Funker Vogt - Code Of Conduct (Limited Edition)

Жанр: EBM, Electro Industrial
Страна: Germany
Год выпуска: 2017
Источник: CD
Производитель: Repo Records - REPO 037
Аудиокодек: FLAC
Тип рипа: Tracks+.CUE
Битрейт: lossless
Продолжительность: 01:11:01

Треклист:

01 Phönix 4:11
02 Kampfbereit 4:02
03 Für immer 5:02
04 Tanzbefehl 4:46
05 Wahre Helden 3:42
06 Gladiator 4:32
07 Der letzte Tanz 4:27
08 Armed and Dangerous 4:33
09 Deutsch bleibt Deutsch 3:33
10 Brexshit 3:58
11 Superstar 4:51
12 Kämpfer 5:13
13 Theater of War 04:24
14 Army of the Doomed 03:55
15 Der letzte Tanz - Rise of an Empire Mix 04:35
16 Der letzte Tanz - Intent : Outtake 04:55

Код:

X Lossless Decoder version 20161007 (149.3)

XLD extraction logfile from 2017-06-11 12:07:46 -0600

Funker Vogt / Code of Conduct

Used drive : HL-DT-ST DVDRAM GP50NB40 (revision RB00)
Media type : Pressed CD

Ripper mode             : XLD Secure Ripper
Disable audio cache     : OK for the drive with a cache less than 1375KiB
Make use of C2 pointers : NO
Read offset correction  : 6
Max retry count         : 100
Gap status              : Analyzed, Appended (except HTOA)

TOC of the extracted CD
    Track |   Start  |  Length  | Start sector | End sector
   ---------------------------------------------------------
       1  | 00:00:00 | 04:13:01 |         0    |    18975
       2  | 04:13:01 | 04:04:20 |     18976    |    37295
       3  | 08:17:21 | 05:04:25 |     37296    |    60120
       4  | 13:21:46 | 04:47:62 |     60121    |    81707
       5  | 18:09:33 | 03:43:70 |     81708    |    98502
       6  | 21:53:28 | 04:34:16 |     98503    |   119068
       7  | 26:27:44 | 04:29:04 |    119069    |   139247
       8  | 30:56:48 | 04:34:56 |    139248    |   159853
       9  | 35:31:29 | 03:34:52 |    159854    |   175955
      10  | 39:06:06 | 04:00:33 |    175956    |   193988
      11  | 43:06:39 | 04:52:62 |    193989    |   215950
      12  | 47:59:26 | 05:13:74 |    215951    |   239499
      13  | 53:13:25 | 04:23:69 |    239500    |   259293
      14  | 57:37:19 | 03:54:26 |    259294    |   276869
      15  | 61:31:45 | 04:34:06 |    276870    |   297425
      16  | 66:05:51 | 04:54:36 |    297426    |   319511 

AccurateRip Summary
   Disc not found in AccurateRip DB.

All Tracks
   Album gain               : -8.58 dB
   Peak                     : 1.000000
   Statistics
       Read error                           : 0
       Jitter error (maybe fixed)           : 0
       Retry sector count                   : 0
       Damaged sector count                 : 0

Track 01
   Filename : /XLD/Funker Vogt - Code of Conduct (2017) [FLAC]/01 - Funker Vogt - Phönix.flac
              /XLD/Funker Vogt - Code of Conduct (2017) [V0]/01 - Funker Vogt - Phönix.mp3
   Pre-gap length : 00:02:00

   Track gain               : -8.82 dB
   Peak                     : 1.000000
   CRC32 hash (test run)    : 9708938A
   CRC32 hash               : 9708938A
   CRC32 hash (skip zero)   : 4A9C7DD3
   AccurateRip v1 signature : BA05C768
   AccurateRip v2 signature : 87DA6DE4
       ->Track not present in AccurateRip database.
   Statistics
       Read error                           : 0
       Jitter error (maybe fixed)           : 0
       Retry sector count                   : 0
       Damaged sector count                 : 0

Track 02
   Filename : /XLD/Funker Vogt - Code of Conduct (2017) [FLAC]/02 - Funker Vogt - Kampfbereit.flac
              /XLD/Funker Vogt - Code of Conduct (2017) [V0]/02 - Funker Vogt - Kampfbereit.mp3
   Pre-gap length : 00:01:57

   Track gain               : -8.01 dB
   Peak                     : 1.000000
   CRC32 hash (test run)    : A926387C
   CRC32 hash               : A926387C
   CRC32 hash (skip zero)   : 689A507B
   AccurateRip v1 signature : 829C3654
   AccurateRip v2 signature : C9D3BEDA
       ->Track not present in AccurateRip database.
   Statistics
       Read error                           : 0
       Jitter error (maybe fixed)           : 0
       Retry sector count                   : 0
       Damaged sector count                 : 0

Track 03
   Filename : /XLD/Funker Vogt - Code of Conduct (2017) [FLAC]/03 - Funker Vogt - Für immer.flac
              /XLD/Funker Vogt - Code of Conduct (2017) [V0]/03 - Funker Vogt - Für immer.mp3
   Pre-gap length : 00:01:57

   Track gain               : -8.45 dB
   Peak                     : 1.000000
   CRC32 hash (test run)    : DB4323C4
   CRC32 hash               : DB4323C4
   CRC32 hash (skip zero)   : 7A3066DA
   AccurateRip v1 signature : FF7BA734
   AccurateRip v2 signature : DF3D4D43
       ->Track not present in AccurateRip database.
   Statistics
       Read error                           : 0
       Jitter error (maybe fixed)           : 0
       Retry sector count                   : 0
       Damaged sector count                 : 0

Track 04
   Filename : /XLD/Funker Vogt - Code of Conduct (2017) [FLAC]/04 - Funker Vogt - Tanzbefehl.flac
              /XLD/Funker Vogt - Code of Conduct (2017) [V0]/04 - Funker Vogt - Tanzbefehl.mp3
   Pre-gap length : 00:01:57

   Track gain               : -8.91 dB
   Peak                     : 1.000000
   CRC32 hash (test run)    : BBACAC9D
   CRC32 hash               : BBACAC9D
   CRC32 hash (skip zero)   : DD8A2278
   AccurateRip v1 signature : 704822B8
   AccurateRip v2 signature : 39BE423A
       ->Track not present in AccurateRip database.
   Statistics
       Read error                           : 0
       Jitter error (maybe fixed)           : 0
       Retry sector count                   : 0
       Damaged sector count                 : 0

Track 05
   Filename : /XLD/Funker Vogt - Code of Conduct (2017) [FLAC]/05 - Funker Vogt - Wahre Helden.flac
              /XLD/Funker Vogt - Code of Conduct (2017) [V0]/05 - Funker Vogt - Wahre Helden.mp3
   Pre-gap length : 00:01:57

   Track gain               : -8.61 dB
   Peak                     : 1.000000
   CRC32 hash (test run)    : BDA2170A
   CRC32 hash               : BDA2170A
   CRC32 hash (skip zero)   : 29F29FC9
   AccurateRip v1 signature : C757ACAE
   AccurateRip v2 signature : BFADE330
       ->Track not present in AccurateRip database.
   Statistics
       Read error                           : 0
       Jitter error (maybe fixed)           : 0
       Retry sector count                   : 0
       Damaged sector count                 : 0

Track 06
   Filename : /XLD/Funker Vogt - Code of Conduct (2017) [FLAC]/06 - Funker Vogt - Gladiator.flac
              /XLD/Funker Vogt - Code of Conduct (2017) [V0]/06 - Funker Vogt - Gladiator.mp3
   Pre-gap length : 00:01:56

   Track gain               : -8.27 dB
   Peak                     : 1.000000
   CRC32 hash (test run)    : 0E163C23
   CRC32 hash               : 0E163C23
   CRC32 hash (skip zero)   : B2E7F625
   AccurateRip v1 signature : 6DD7B253
   AccurateRip v2 signature : EE66D08A
       ->Track not present in AccurateRip database.
   Statistics
       Read error                           : 0
       Jitter error (maybe fixed)           : 0
       Retry sector count                   : 0
       Damaged sector count                 : 0

Track 07
   Filename : /XLD/Funker Vogt - Code of Conduct (2017) [FLAC]/07 - Funker Vogt - Der letzte Tanz.flac
              /XLD/Funker Vogt - Code of Conduct (2017) [V0]/07 - Funker Vogt - Der letzte Tanz.mp3
   Pre-gap length : 00:01:57

   Track gain               : -8.03 dB
   Peak                     : 1.000000
   CRC32 hash (test run)    : 55063C72
   CRC32 hash               : 55063C72
   CRC32 hash (skip zero)   : CF433AC8
   AccurateRip v1 signature : 2DE3359B
   AccurateRip v2 signature : F13DA713
       ->Track not present in AccurateRip database.
   Statistics
       Read error                           : 0
       Jitter error (maybe fixed)           : 0
       Retry sector count                   : 0
       Damaged sector count                 : 0

Track 08
   Filename : /XLD/Funker Vogt - Code of Conduct (2017) [FLAC]/08 - Funker Vogt - Armed & Dangerous.flac
              /XLD/Funker Vogt - Code of Conduct (2017) [V0]/08 - Funker Vogt - Armed & Dangerous.mp3
   Pre-gap length : 00:01:57

   Track gain               : -8.34 dB
   Peak                     : 1.000000
   CRC32 hash (test run)    : 5D29CFDD
   CRC32 hash               : 5D29CFDD
   CRC32 hash (skip zero)   : A539EFAA
   AccurateRip v1 signature : 64DD7FF2
   AccurateRip v2 signature : 7E051889
       ->Track not present in AccurateRip database.
   Statistics
       Read error                           : 0
       Jitter error (maybe fixed)           : 0
       Retry sector count                   : 0
       Damaged sector count                 : 0

Track 09
   Filename : /XLD/Funker Vogt - Code of Conduct (2017) [FLAC]/09 - Funker Vogt - Deutsch bleibt Deutsch.flac
              /XLD/Funker Vogt - Code of Conduct (2017) [V0]/09 - Funker Vogt - Deutsch bleibt Deutsch.mp3
   Pre-gap length : 00:01:57

   Track gain               : -9.64 dB
   Peak                     : 1.000000
   CRC32 hash (test run)    : F0CD4B8A
   CRC32 hash               : F0CD4B8A
   CRC32 hash (skip zero)   : 4A84A107
   AccurateRip v1 signature : 55B11ED0
   AccurateRip v2 signature : 6AD7F0D8
       ->Track not present in AccurateRip database.
   Statistics
       Read error                           : 0
       Jitter error (maybe fixed)           : 0
       Retry sector count                   : 0
       Damaged sector count                 : 0

Track 10
   Filename : /XLD/Funker Vogt - Code of Conduct (2017) [FLAC]/10 - Funker Vogt - Brexshit.flac
              /XLD/Funker Vogt - Code of Conduct (2017) [V0]/10 - Funker Vogt - Brexshit.mp3
   Pre-gap length : 00:01:57

   Track gain               : -9.20 dB
   Peak                     : 1.000000
   CRC32 hash (test run)    : 55CCBB4C
   CRC32 hash               : 55CCBB4C
   CRC32 hash (skip zero)   : BEE4FD37
   AccurateRip v1 signature : 369BB295
   AccurateRip v2 signature : EEDF5280
       ->Track not present in AccurateRip database.
   Statistics
       Read error                           : 0
       Jitter error (maybe fixed)           : 0
       Retry sector count                   : 0
       Damaged sector count                 : 0

Track 11
   Filename : /XLD/Funker Vogt - Code of Conduct (2017) [FLAC]/11 - Funker Vogt - Superstar.flac
              /XLD/Funker Vogt - Code of Conduct (2017) [V0]/11 - Funker Vogt - Superstar.mp3
   Pre-gap length : 00:01:57

   Track gain               : -7.99 dB
   Peak                     : 1.000000
   CRC32 hash (test run)    : 5662DC6C
   CRC32 hash               : 5662DC6C
   CRC32 hash (skip zero)   : E16998BB
   AccurateRip v1 signature : 282DF621
   AccurateRip v2 signature : BA9C99BB
       ->Track not present in AccurateRip database.
   Statistics
       Read error                           : 0
       Jitter error (maybe fixed)           : 0
       Retry sector count                   : 0
       Damaged sector count                 : 0

Track 12
   Filename : /XLD/Funker Vogt - Code of Conduct (2017) [FLAC]/12 - Funker Vogt - Kämpfer.flac
              /XLD/Funker Vogt - Code of Conduct (2017) [V0]/12 - Funker Vogt - Kämpfer.mp3
   Pre-gap length : 00:01:57

   Track gain               : -8.21 dB
   Peak                     : 1.000000
   CRC32 hash (test run)    : D5D6B273
   CRC32 hash               : D5D6B273
   CRC32 hash (skip zero)   : 993E6E7B
   AccurateRip v1 signature : 699AB0BF
   AccurateRip v2 signature : 70F63282
       ->Track not present in AccurateRip database.
   Statistics
       Read error                           : 0
       Jitter error (maybe fixed)           : 0
       Retry sector count                   : 0
       Damaged sector count                 : 0

Track 13
   Filename : /XLD/Funker Vogt - Code of Conduct (2017) [FLAC]/13 - Funker Vogt - Theater of War (feat. Gary Wagner).flac
              /XLD/Funker Vogt - Code of Conduct (2017) [V0]/13 - Funker Vogt - Theater of War (feat. Gary Wagner).mp3
   Pre-gap length : 00:01:57

   Track gain               : -7.92 dB
   Peak                     : 1.000000
   CRC32 hash (test run)    : 8613E946
   CRC32 hash               : 8613E946
   CRC32 hash (skip zero)   : F798E0DF
   AccurateRip v1 signature : BDB43537
   AccurateRip v2 signature : 61D5E8A3
       ->Track not present in AccurateRip database.
   Statistics
       Read error                           : 0
       Jitter error (maybe fixed)           : 0
       Retry sector count                   : 0
       Damaged sector count                 : 0

Track 14
   Filename : /XLD/Funker Vogt - Code of Conduct (2017) [FLAC]/14 - Funker Vogt - Army of the Doomed.flac
              /XLD/Funker Vogt - Code of Conduct (2017) [V0]/14 - Funker Vogt - Army of the Doomed.mp3
   Pre-gap length : 00:01:57

   Track gain               : -8.89 dB
   Peak                     : 1.000000
   CRC32 hash (test run)    : 2E84F17F
   CRC32 hash               : 2E84F17F
   CRC32 hash (skip zero)   : F468F263
   AccurateRip v1 signature : 21E91F99
   AccurateRip v2 signature : 8BC68C4F
       ->Track not present in AccurateRip database.
   Statistics
       Read error                           : 0
       Jitter error (maybe fixed)           : 0
       Retry sector count                   : 0
       Damaged sector count                 : 0

Track 15
   Filename : /XLD/Funker Vogt - Code of Conduct (2017) [FLAC]/15 - Funker Vogt - Der letzte Tanz (Rise of an Empire Mix).flac
              /XLD/Funker Vogt - Code of Conduct (2017) [V0]/15 - Funker Vogt - Der letzte Tanz (Rise of an Empire Mix).mp3
   Pre-gap length : 00:01:57

   Track gain               : -8.97 dB
   Peak                     : 1.000000
   CRC32 hash (test run)    : 1F9FC87A
   CRC32 hash               : 1F9FC87A
   CRC32 hash (skip zero)   : FBD86D66
   AccurateRip v1 signature : 61093187
   AccurateRip v2 signature : 1799B31F
       ->Track not present in AccurateRip database.
   Statistics
       Read error                           : 0
       Jitter error (maybe fixed)           : 0
       Retry sector count                   : 0
       Damaged sector count                 : 0

Track 16
   Filename : /XLD/Funker Vogt - Code of Conduct (2017) [FLAC]/16 - Funker Vogt - Der letzte Tanz (Intent:Outtake Remix).flac
              /XLD/Funker Vogt - Code of Conduct (2017) [V0]/16 - Funker Vogt - Der letzte Tanz (Intent:Outtake Remix).mp3
   Pre-gap length : 00:01:57

   Track gain               : -8.25 dB
   Peak                     : 1.000000
   CRC32 hash (test run)    : 07A7F863
   CRC32 hash               : 07A7F863
   CRC32 hash (skip zero)   : 091F2B80
   AccurateRip v1 signature : 73920A4D
   AccurateRip v2 signature : 4F6F53A7
       ->Track not present in AccurateRip database.
   Statistics
       Read error                           : 0
       Jitter error (maybe fixed)           : 0
       Retry sector count                   : 0
       Damaged sector count                 : 0

No errors occurred

End of status report

-----BEGIN XLD SIGNATURE-----
993wwpHSn0H..KWmbtggP_zn7zIq1vMJKUGQehtlvxtiiGlBFZC1FAw7X.EsTGvisIuqokiAaIoFKToUdKoC2WhkThNV83BMPXUKa.q
-----END XLD SIGNATURE-----

Код:

TITLE "Code of Conduct"
PERFORMER "Funker Vogt"
CATALOG 4042564176186
REM GENRE "Alternative"
REM DATE "2017"
REM DISCNUMBER 1
REM TOTALDISCS 1
REM DISCID 0B10A410
REM REPLAYGAIN_ALBUM_GAIN -8.58 dB
REM REPLAYGAIN_ALBUM_PEAK 1.000000
FILE "01 - Funker Vogt - Phönix.flac" WAVE
  TRACK 01 AUDIO
    TITLE "Phönix"
    SONGWRITER "Gerrit Thomas And Chris L."
    ISRC DES131700001
    REM REPLAYGAIN_TRACK_GAIN -8.82 dB
    REM REPLAYGAIN_TRACK_PEAK 1.000000
    INDEX 01 00:00:00
  TRACK 02 AUDIO
    TITLE "Kampfbereit"
    SONGWRITER "Gerrit Thomas And Chris L."
    ISRC DES131700002
    REM REPLAYGAIN_TRACK_GAIN -8.01 dB
    REM REPLAYGAIN_TRACK_PEAK 1.000000
    INDEX 00 04:11:19
FILE "02 - Funker Vogt - Kampfbereit.flac" WAVE
    INDEX 01 00:00:00
  TRACK 03 AUDIO
    TITLE "Für immer"
    SONGWRITER "Gerrit Thomas And Chris L."
    ISRC DES131700003
    REM REPLAYGAIN_TRACK_GAIN -8.45 dB
    REM REPLAYGAIN_TRACK_PEAK 1.000000
    INDEX 00 04:02:38
FILE "03 - Funker Vogt - Für immer.flac" WAVE
    INDEX 01 00:00:00
  TRACK 04 AUDIO
    TITLE "Tanzbefehl"
    SONGWRITER "Gerrit Thomas And Chris L."
    ISRC DES131700004
    REM REPLAYGAIN_TRACK_GAIN -8.91 dB
    REM REPLAYGAIN_TRACK_PEAK 1.000000
    INDEX 00 05:02:43
FILE "04 - Funker Vogt - Tanzbefehl.flac" WAVE
    INDEX 01 00:00:00
  TRACK 05 AUDIO
    TITLE "Wahre Helden"
    SONGWRITER "Gerrit Thomas And Chris L."
    ISRC DES131700005
    REM REPLAYGAIN_TRACK_GAIN -8.61 dB
    REM REPLAYGAIN_TRACK_PEAK 1.000000
    INDEX 00 04:46:05
FILE "05 - Funker Vogt - Wahre Helden.flac" WAVE
    INDEX 01 00:00:00
  TRACK 06 AUDIO
    TITLE "Gladiator"
    SONGWRITER "Gerrit Thomas And Chris L."
    ISRC DES131700006
    REM REPLAYGAIN_TRACK_GAIN -8.27 dB
    REM REPLAYGAIN_TRACK_PEAK 1.000000
    INDEX 00 03:42:14
FILE "06 - Funker Vogt - Gladiator.flac" WAVE
    INDEX 01 00:00:00
  TRACK 07 AUDIO
    TITLE "Der letzte Tanz"
    SONGWRITER "Gerrit Thomas And Chris L."
    ISRC DES131700007
    REM REPLAYGAIN_TRACK_GAIN -8.03 dB
    REM REPLAYGAIN_TRACK_PEAK 1.000000
    INDEX 00 04:32:34
FILE "07 - Funker Vogt - Der letzte Tanz.flac" WAVE
    INDEX 01 00:00:00
  TRACK 08 AUDIO
    TITLE "Armed & Dangerous"
    SONGWRITER "Gerrit Thomas And Chris L."
    ISRC DES131700008
    REM REPLAYGAIN_TRACK_GAIN -8.34 dB
    REM REPLAYGAIN_TRACK_PEAK 1.000000
    INDEX 00 04:27:22
FILE "08 - Funker Vogt - Armed & Dangerous.flac" WAVE
    INDEX 01 00:00:00
  TRACK 09 AUDIO
    TITLE "Deutsch bleibt Deutsch"
    SONGWRITER "Gerrit Thomas And Chris L."
    ISRC DES131700009
    REM REPLAYGAIN_TRACK_GAIN -9.64 dB
    REM REPLAYGAIN_TRACK_PEAK 1.000000
    INDEX 00 04:32:74
FILE "09 - Funker Vogt - Deutsch bleibt Deutsch.flac" WAVE
    INDEX 01 00:00:00
  TRACK 10 AUDIO
    TITLE "Brexshit"
    SONGWRITER "Gerrit Thomas And Chris L."
    ISRC DES131700010
    REM REPLAYGAIN_TRACK_GAIN -9.20 dB
    REM REPLAYGAIN_TRACK_PEAK 1.000000
    INDEX 00 03:32:70
FILE "10 - Funker Vogt - Brexshit.flac" WAVE
    INDEX 01 00:00:00
  TRACK 11 AUDIO
    TITLE "Superstar"
    SONGWRITER "Gerrit Thomas And Chris L."
    ISRC DES131700011
    REM REPLAYGAIN_TRACK_GAIN -7.99 dB
    REM REPLAYGAIN_TRACK_PEAK 1.000000
    INDEX 00 03:58:51
FILE "11 - Funker Vogt - Superstar.flac" WAVE
    INDEX 01 00:00:00
  TRACK 12 AUDIO
    TITLE "Kämpfer"
    SONGWRITER "Gerrit Thomas And Chris L."
    ISRC DES131700012
    REM REPLAYGAIN_TRACK_GAIN -8.21 dB
    REM REPLAYGAIN_TRACK_PEAK 1.000000
    INDEX 00 04:51:05
FILE "12 - Funker Vogt - Kämpfer.flac" WAVE
    INDEX 01 00:00:00
  TRACK 13 AUDIO
    TITLE "Theater of War (feat. Gary Wagner)"
    SONGWRITER "Gerrit Thomas And Chris L."
    ISRC DES131700013
    REM REPLAYGAIN_TRACK_GAIN -7.92 dB
    REM REPLAYGAIN_TRACK_PEAK 1.000000
    INDEX 00 05:12:17
FILE "13 - Funker Vogt - Theater of War (feat. Gary Wagner).flac" WAVE
    INDEX 01 00:00:00
  TRACK 14 AUDIO
    TITLE "Army of the Doomed"
    SONGWRITER "Gerrit Thomas And Chris L."
    ISRC DES131700014
    REM REPLAYGAIN_TRACK_GAIN -8.89 dB
    REM REPLAYGAIN_TRACK_PEAK 1.000000
    INDEX 00 04:22:12
FILE "14 - Funker Vogt - Army of the Doomed.flac" WAVE
    INDEX 01 00:00:00
  TRACK 15 AUDIO
    TITLE "Der letzte Tanz (Rise of an Empire Mix)"
    SONGWRITER "Gerrit Thomas And Chris L."
    ISRC DES131700015
    REM REPLAYGAIN_TRACK_GAIN -8.97 dB
    REM REPLAYGAIN_TRACK_PEAK 1.000000
    INDEX 00 03:52:44
FILE "15 - Funker Vogt - Der letzte Tanz (Rise of an Empire Mix).flac" WAVE
    INDEX 01 00:00:00
  TRACK 16 AUDIO
    TITLE "Der letzte Tanz (Intent:Outtake Remix)"
    SONGWRITER "Gerrit Thomas And Chris L."
    ISRC DES131700016
    REM REPLAYGAIN_TRACK_GAIN -8.25 dB
    REM REPLAYGAIN_TRACK_PEAK 1.000000
    INDEX 00 04:32:24
FILE "16 - Funker Vogt - Der letzte Tanz (Intent:Outtake Remix).flac" WAVE
    INDEX 01 00:00:00

Этот торрент недоступен для скачивания без регистрации, однако доступен по публичной magnet-ссылке (источники с публичных трекеров). Перед использованием ссылки прочтите, пожалуйста Пользовательское соглашение, а также как можно дольше оставайтесь на раздаче! Для того, чтобы скачать сам торрент-файл (который видит больше источников), а также для того, чтобы поблагодарить релизера, вам необходимо зарегистрироваться. Если регистрироваться лень - вы можете также попробовать скачать релиз по нашим партнерским ссылкам ниже. Кроме того, зарегистрированным пользователям не показывается всплывающая реклама при скачивании.

[underverse.me].t84075.torrent
Трекер: Зарегистрирован   [ 12.06.2017 13:57 ]  

Статус: проверено (by Darkferse at 12.06.2017 15:08)
Поблагодарили: пока никто не поблагодарил...
Тип торрента: публичный - доступные источники с открытых трекеров: 
Размер: 529 MB (занимает 0,12 DVDR, для записи нужно 1 болванка DVDR/RW)
 
 
Похожие темы
Форум Тема Автор Торрент Отв. Посл. сооб.
EBM, Industrial, Dark Electro, Darkwave, Gothic Synth (EBM, Electro Industrial) Decoded Feedback - Waiting For The Storm (2016) [MP3, 320 kbps] ANDRAKO
0 | 0

0 | 545

6

27.12.2016 08:27

EBM, Industrial, Dark Electro, Darkwave, Gothic Synth (EBM, Electro Industrial, Futurepop) Decoded Feedback - Dark Passenger (Deluxe Edition) (2016) [MP3, 320 kbps] ANDRAKO
0 | 0

0 | 570

4

27.12.2016 08:16

EBM, Industrial, Dark Electro, Darkwave, Gothic Synth (EBM, Electro Industrial) Nine Seconds - Nothing To Confess (2014) [MP3, 320 kbps] ANDRAKO
1 | 0

0 | 521

2

27.11.2016 10:46

EBM, Industrial, Dark Electro, Darkwave, Gothic Synth (EBM, Electro-Idustrial) Binary Park - Singularity (2014) [MP3, 320 kbps] ANDRAKO
2 | 0

0 | 464

1

27.11.2016 09:43

EBM, Industrial, Dark Electro, Darkwave, Gothic Synth (EBM, Electro Industial, Darkwave) Ad Inferna - Opus 7: Elevation (2014) [MP3, 320 kbps] ANDRAKO
3 | 0

0 | 449

3

10.11.2016 15:14

EBM, Industrial, Dark Electro, Darkwave, Gothic Synth (EBM, Electro Industrial) Sebastian Komor - Vikings, Thrones & Dragonbones (2014) [MP3, 320 kbps] ANDRAKO
2 | 0

0 | 416

1

09.11.2016 16:52

EBM, Industrial, Dark Electro, Darkwave, Gothic Synth (EBM, Electro, Experimental) Clock DVA - Clock 2 (2014) [MP3, 320 kbps] ANDRAKO
2 | 0

0 | 353

2

09.11.2016 16:35

EBM, Industrial, Dark Electro, Darkwave, Gothic Synth (EBM, Electro Industrial) Finkseye - Deadweight (2016) [MP3, 320 kbps] ANDRAKO
1 | 0

0 | 399

3

04.11.2016 16:49

EBM, Industrial, Dark Electro, Darkwave, Gothic Synth (EBM, Electro Industrial) Project Pitchfork - Second Anthology (2016) [MP3, 320 kbps] ANDRAKO
2 | 0

0 | 536

3

12.12.2016 22:24

EBM, Industrial, Dark Electro, Darkwave, Gothic Synth (EBM, Electro Industrial, Synthpop) X-Marks The Pedwalk - Secrets (2017) [MP3, 320 kbps] ANDRAKO
0 | 0

0 | 729

7

25.03.2017 08:37



Последний раз редактировалось: Darkferse (12.06.2017 14:53), всего редактировалось 1 раз

Яндекс.Метрика powered by Sphinx


В Н И М А Н И Е
Сайт не распространяет и не хранит электронные версии произведений, а лишь бесплатно и без коммерческой выгоды (не требуя взамен платы,
SMS и т.д.) предоставляет доступ к создаваемому пользователями каталогу ссылок на торрент-файлы, которые содержат только списки хеш-сумм.
Убедительная просьба с жалобами обращаться напрямую к пользователю, разместившему торрент файл.

Вверх