Loading...
Error

(Blues) Janiva Magness - Blue Again (2017) [FLAC (Image+.Cue), Lossless]

Статистика раздачи
Размер:  174 MB   |    Зарегистрирован:  1 год   |    Скачан:  6 раз

Полного источника не было: 5 дней

Сидов:  0  |  0 KB/s  ]   Личеров:  0  |  0 KB/s  ]

* - сиды/пиры с внешних источников

   
 
Автор Сообщение

Бишеп Пол:Муж

19-Июн-2017 20:10

Janiva Magness - Blue Again

Жанр: Blues
Год выпуска: 2017
Источник: CD
Производитель диска: Blue Élan Records - BER1045
Аудиокодек: FLAC
Тип рипа: Image+.CUE
Битрейт аудио: lossless
Продолжительность: 00:23:33


Треклист:
01. I Can Tell (4:19)
02. I Love You More Than You'll Ever Know (5:38)
03. If I Can't Have You (4:01)
04. Tired of Walking (3:06)
05. Buck (2:32)
06. Pack It Up (3:55)

Код:

Exact Audio Copy V1.0 beta 3 from 29. August 2011

Отчёт EAC об извлечении, выполненном 14. мая 2017, 13:54

Janiva Magness / Blue Again

Дисковод: PLEXTOR DVDR   PX-880SA   Adapter: 1  ID: 0

Режим чтения                 : Достоверность
Использование точного потока : Да
Отключение кэша аудио        : Да
Использование указателей C2  : Нет

Коррекция смещения при чтении                     : 6
Способность читать области Lead-in и Lead-out     : Нет
Заполнение пропущенных сэмплов тишиной            : Да
Удаление блоков с тишиной в начале и конце        : Нет
При вычислениях CRC использовались нулевые сэмплы : Да
Интерфейс                                         : Установленный внешний ASPI-интерфейс

Выходной формат          : Пользовательский кодировщик
Выбранный битрейт        : 1024 kBit/s
Качество                 : Высокий
Добавление ID3-тега      : Нет
Утилита сжатия           : C:\Program Files\Exact Audio Copy\FLAC\FLAC.EXE
Дополнительные параметры : -8 -V -T "ARTIST=%artist%" -T "ALBUM=%albumtitle%" -T "DATE=%year%" -T "GENRE=%genre%" -T "COMMENT=ripped by izia1956" %source%

TOC извлечённого CD

     Трек |   Старт  | Длительность | Начальный сектор | Конечный сектор
    ---------------------------------------------------------------------
       1  |  0:00.00 |    4:19.54   |           0      |      19478     
       2  |  4:19.54 |    5:38.64   |       19479      |      44892     
       3  |  9:58.43 |    4:01.07   |       44893      |      62974     
       4  | 13:59.50 |    3:06.19   |       62975      |      76943     
       5  | 17:05.69 |    2:32.16   |       76944      |      88359     
       6  | 19:38.10 |    3:55.14   |       88360      |     105998     

Характеристики диапазона извлечения и сообщения об ошибках

Выбранный диапазон

     Имя файла D:\BitComet\Janiva Magness - Blue Again (2017)(flac)\Janiva Magness - Blue Again.wav

     Пиковый уровень 99.7 %
     Скорость извлечения 2.8 X
     Качество диапазона 99.9 %
     CRC теста 2D9151FE
     CRC копии 2D9151FE
     Копирование... OK

Ошибок не произошло

 
AccurateRip: сводка
 
Трек  1  отсутствует в базе данных
Трек  2  отсутствует в базе данных
Трек  3  отсутствует в базе данных
Трек  4  отсутствует в базе данных
Трек  5  отсутствует в базе данных
Трек  6  отсутствует в базе данных
 
Ни одного трека нет в базе AccurateRip

Конец отчёта

==== Контрольная сумма отчёта 7D095F16BC33AA6C0D062F1F9F12D3D18282CFF0812FA0369F5BA72A0D7153CA ====

Код:

REM GENRE Blues
REM DATE 2017
REM DISCID 32058506
REM COMMENT "ExactAudioCopy v1.0b3"
PERFORMER "Janiva Magness"
TITLE "Blue Again"
FILE "Janiva Magness - Blue Again.flac" WAVE
  TRACK 01 AUDIO
    TITLE "I Can Tell"
    PERFORMER "Janiva Magness"
    INDEX 01 00:00:00
  TRACK 02 AUDIO
    TITLE "I Love You More Than You'll Ever Know"
    PERFORMER "Janiva Magness"
    INDEX 01 04:19:54
  TRACK 03 AUDIO
    TITLE "If I Can't Have You"
    PERFORMER "Janiva Magness"
    INDEX 01 09:58:43
  TRACK 04 AUDIO
    TITLE "Tired of Walking"
    PERFORMER "Janiva Magness"
    INDEX 01 13:59:50
  TRACK 05 AUDIO
    TITLE "Buck"
    PERFORMER "Janiva Magness"
    INDEX 01 17:05:69
  TRACK 06 AUDIO
    TITLE "Pack It Up"
    PERFORMER "Janiva Magness"
    INDEX 01 19:38:10

Этот торрент недоступен для скачивания без регистрации, однако доступен по публичной magnet-ссылке (источники с публичных трекеров). Перед использованием ссылки прочтите, пожалуйста Пользовательское соглашение, а также как можно дольше оставайтесь на раздаче! Для того, чтобы скачать сам торрент-файл (который видит больше источников), а также для того, чтобы поблагодарить релизера, вам необходимо зарегистрироваться. Если регистрироваться лень - вы можете также попробовать скачать релиз по нашим партнерским ссылкам ниже. Кроме того, зарегистрированным пользователям не показывается всплывающая реклама при скачивании.

[underverse.me].t84597.torrent
Трекер: Зарегистрирован   [ 19.06.2017 20:10 ]  

Статус: проверено (by Бишеп at 19.06.2017 20:10)
Поблагодарили: пока никто не поблагодарил...
Тип торрента: публичный - доступные источники с открытых трекеров: 
Размер: 174 MB (занимает 0,04 DVDR, для записи нужно 1 болванка DVDR/RW)
 
 
Похожие темы
Форум Тема Автор Торрент Отв. Посл. сооб.
Blues (Lossless) (Blues) Janiva Magness - Love Is An Army (2018) [FLAC (Image+.Cue), Lossless] Бишеп
11 | 1

0 | 437

7

16.03.2018 16:10


Яндекс.Метрика powered by Sphinx


В Н И М А Н И Е
Сайт не распространяет и не хранит электронные версии произведений, а лишь бесплатно и без коммерческой выгоды (не требуя взамен платы,
SMS и т.д.) предоставляет доступ к создаваемому пользователями каталогу ссылок на торрент-файлы, которые содержат только списки хеш-сумм.
Убедительная просьба с жалобами обращаться напрямую к пользователю, разместившему торрент файл.

Вверх