Loading...
Error

(Score) VA - Бэтмен: Рыцарь Готэма / Batman: Gotham Knight (2008) [FLAC (Tracks+.CUE), lossless]

Статистика раздачи
Размер:  335 MB   |    Зарегистрирован:  11 месяцев   |    Скачан:  1 раз
Сидов:  2  |  0 KB/s  ]   Личеров:  0  |  0 KB/s  ]

* - сиды/пиры с внешних источников

   
 
Автор Сообщение

garry Пол:Муж

09-Июл-2017 11:09

Бэтмен: Рыцарь Готэма / Batman: Gotham Knight

Жанр: Score
Год выпуска: 2008
Источник: CD
Производитель: La-La Land Records, LLLCD 1074
Аудиокодек: FLAC
Тип рипа: Tracks+.CUE
Битрейт: lossless
Продолжительность: 01:03:08
"Have I Got a Story for You"
01 - Christopher Drake - Main Titles / Intro / Interlude / Punk Skater / Trouble at the Dock
02 - Christopher Drake - Living Shadow / Living Shadow Finale
03 - Christopher Drake - Skater Girl / Trouble in the City
04 - Christopher Drake - Batmonster Appears / Batmonster Do-Over / Batmonster Finale
05 - Christopher Drake - Rooftop Robbery / Robobat
06 - Christopher Drake - Have I Got a Story for You Finale

"Crossfire"
07 - Kevin Manthei - Crossfire
08 - Kevin Manthei - Inferno

"Field Test"
09 - Robert J. Kral - New Device
10 - Robert J. Kral - Trigger A Device / As Good As Your Drive
11 - Robert J. Kral - A Russian in His Grave / It Works Too Well

"In Darkness Dwells"
12 - Christopher Drake - In Darkness Dwells Intro
13 - Christopher Drake - Gordon's Cannibal / Ghost Station
14 - Christopher Drake - Epidermolytic Hyperkeratosis
15 - Christopher Drake - Killer Croc / Hallucinations / Scarecrow Interrupted
16 - Christopher Drake - Escape and End

"Working Through Pain"
17 - Kevin Manthei - Working Through Pain / The Fall
18 - Kevin Manthei - Bazaar
19 - Kevin Manthei - There is Another / Training
20 - Kevin Manthei - Rejected and Despised
21 - Kevin Manthei - Painless Fight / I Can't

"Deadshot"
22 - Robert J. Kral - Parents Killed
23 - Robert J. Kral - Gun Attraction / Park Killing
24 - Robert J. Kral - Gordon / Batman / The Train
25 - Robert J. Kral - His Life's Quest

26 - Christopher Drake, Robert J. Kral, Kevin Manthei - End Credits Suite

Код:

Exact Audio Copy V0.99 prebeta 4 from 23. January 2008

EAC extraction logfile from 20. April 2010, 17:19

  / Batman- Gotham Knight (v.3)

Used drive  : TSSTcorpCDDVDW TS-H653N   Adapter: 2  ID: 2

Read mode               : Secure
Utilize accurate stream : Yes
Defeat audio cache      : Yes
Make use of C2 pointers : No

Read offset correction                      : 6
Overread into Lead-In and Lead-Out          : No
Fill up missing offset samples with silence : Yes
Delete leading and trailing silent blocks   : No
Null samples used in CRC calculations       : Yes
Used interface                              : Installed external ASPI interface
Gap handling                                : Appended to previous track

Used output format              : User Defined Encoder
Selected bitrate                : 320 kBit/s
Quality                         : High
Add ID3 tag                     : No
Command line compressor         : C:\Program Files\Exact Audio Copy\FLAC\FLAC.EXE
Additional command line options : -V -8 -T "artist=%a" -T "title=%t" -T "album=%g" -T "date=%y" -T "tracknumber=%n" -T "genre=%m" %s

TOC of the extracted CD

     Track |   Start  |  Length  | Start sector | End sector
    ---------------------------------------------------------
        1  |  0:00.00 |  2:30.58 |         0    |    11307   
        2  |  2:30.58 |  1:47.19 |     11308    |    19351   
        3  |  4:18.02 |  0:52.02 |     19352    |    23253   
        4  |  5:10.04 |  2:20.19 |     23254    |    33772   
        5  |  7:30.23 |  1:46.02 |     33773    |    41724   
        6  |  9:16.25 |  1:39.65 |     41725    |    49214   
        7  | 10:56.15 |  4:51.41 |     49215    |    71080   
        8  | 15:47.56 |  5:52.59 |     71081    |    97539   
        9  | 21:40.40 |  1:24.25 |     97540    |   103864   
       10  | 23:04.65 |  1:12.66 |    103865    |   109330   
       11  | 24:17.56 |  3:57.51 |    109331    |   127156   
       12  | 28:15.32 |  1:02.64 |    127157    |   131870   
       13  | 29:18.21 |  3:02.50 |    131871    |   145570   
       14  | 32:20.71 |  0:45.56 |    145571    |   149001   
       15  | 33:06.52 |  3:21.69 |    149002    |   164145   
       16  | 36:28.46 |  1:49.48 |    164146    |   172368   
       17  | 38:18.19 |  1:48.31 |    172369    |   180499   
       18  | 40:06.50 |  0:28.23 |    180500    |   182622   
       19  | 40:34.73 |  2:48.00 |    182623    |   195222   
       20  | 43:22.73 |  1:32.12 |    195223    |   202134   
       21  | 44:55.10 |  3:27.56 |    202135    |   217715   
       22  | 48:22.66 |  0:56.68 |    217716    |   221983   
       23  | 49:19.59 |  1:28.43 |    221984    |   228626   
       24  | 50:48.27 |  6:16.24 |    228627    |   256850   
       25  | 57:04.51 |  1:00.53 |    256851    |   261403   
       26  | 58:05.29 |  5:02.59 |    261404    |   284112   

Track  1

     Filename 01 - 01 (1m01-02-03-04) MT-Intro-Int.wav

     Pre-gap length  0:00:02.00

     Peak level 99.9 %
     Track quality 99.9 %
     Test CRC A4431076
     Copy CRC A4431076
     Accurately ripped (confidence 3)  [7E8D2473]
     Copy OK

Track  2

     Filename 02 - 02 (1m05-06) Living Shad-Finale.wav

     Pre-gap length  0:00:02.00

     Peak level 99.9 %
     Track quality 99.9 %
     Test CRC E5861FAD
     Copy CRC E5861FAD
     Accurately ripped (confidence 3)  [4DECF902]
     Copy OK

Track  3

     Filename 03 - 03 (1m07) Skater Girl-Trouble.wav

     Pre-gap length  0:00:02.00

     Peak level 99.3 %
     Track quality 100.0 %
     Test CRC 22B59C42
     Copy CRC 22B59C42
     Accurately ripped (confidence 3)  [C2790DF0]
     Copy OK

Track  4

     Filename 04 - 04 (1m08-09-10) Batmonster-Do.wav

     Pre-gap length  0:00:02.00

     Peak level 100.0 %
     Track quality 100.0 %
     Test CRC EE821A1F
     Copy CRC EE821A1F
     Accurately ripped (confidence 3)  [9A03289F]
     Copy OK

Track  5

     Filename 05 - 05 (1m11-12) Rooftop-Robobat.wav

     Pre-gap length  0:00:02.00

     Peak level 99.9 %
     Track quality 100.0 %
     Test CRC 7230422C
     Copy CRC 7230422C
     Accurately ripped (confidence 3)  [642624F4]
     Copy OK

Track  6

     Filename 06 - 06 (1m13) Have I Got A Story.wav

     Pre-gap length  0:00:02.00

     Peak level 98.8 %
     Track quality 100.0 %
     Test CRC 870A7CCD
     Copy CRC 870A7CCD
     Accurately ripped (confidence 3)  [D7A214CE]
     Copy OK

Track  7

     Filename 07 - 07 (2m01) Crossfire.wav

     Pre-gap length  0:00:04.00

     Peak level 94.5 %
     Track quality 99.9 %
     Test CRC DAA90959
     Copy CRC DAA90959
     Accurately ripped (confidence 3)  [2562C2FB]
     Copy OK

Track  8

     Filename 08 - 08 (2m02) Inferno.wav

     Pre-gap length  0:00:02.00

     Peak level 99.8 %
     Track quality 100.0 %
     Test CRC 53F07220
     Copy CRC 53F07220
     Accurately ripped (confidence 3)  [FF6868D6]
     Copy OK

Track  9

     Filename 09 - 09 (3m01) New Device.wav

     Pre-gap length  0:00:04.00

     Peak level 81.7 %
     Track quality 99.8 %
     Test CRC EAC54003
     Copy CRC EAC54003
     Accurately ripped (confidence 3)  [2F1181F0]
     Copy OK

Track 10

     Filename 10 - 10 (3m02-03) Trigger-As Good.wav

     Pre-gap length  0:00:02.00

     Peak level 74.6 %
     Track quality 100.0 %
     Test CRC 294B9094
     Copy CRC 294B9094
     Accurately ripped (confidence 3)  [C3E5E254]
     Copy OK

Track 11

     Filename 11 - 11 (3m04-05) A Russian-It Works.wav

     Pre-gap length  0:00:02.00

     Peak level 99.9 %
     Track quality 100.0 %
     Test CRC 9752C7AD
     Copy CRC 9752C7AD
     Accurately ripped (confidence 3)  [FE933007]
     Copy OK

Track 12

     Filename 12 - 12 (4m01) In Darkness Dwells.wav

     Pre-gap length  0:00:04.00

     Peak level 100.0 %
     Track quality 100.0 %
     Test CRC C08AC2DE
     Copy CRC C08AC2DE
     Accurately ripped (confidence 3)  [AAC9D176]
     Copy OK

Track 13

     Filename 13 - 13 (4m02-03) Gordon's-Ghost.wav

     Pre-gap length  0:00:02.00

     Peak level 50.1 %
     Track quality 100.0 %
     Test CRC 0EEC9407
     Copy CRC 0EEC9407
     Accurately ripped (confidence 3)  [5A12A506]
     Copy OK

Track 14

     Filename 14 - 14 (4m04) Epidermolytic Hyperke.wav

     Pre-gap length  0:00:02.00

     Peak level 58.9 %
     Track quality 100.0 %
     Test CRC A00CB6DF
     Copy CRC A00CB6DF
     Accurately ripped (confidence 3)  [D48FCBCF]
     Copy OK

Track 15

     Filename 15 - 15 (4m05-06) Killer-Hallucinat.wav

     Pre-gap length  0:00:02.00

     Peak level 100.0 %
     Track quality 99.9 %
     Test CRC 31F24FDE
     Copy CRC 31F24FDE
     Accurately ripped (confidence 3)  [E4E836D4]
     Copy OK

Track 16

     Filename 16 - 16 (4m07) Escape And End.wav

     Pre-gap length  0:00:02.00

     Peak level 100.0 %
     Track quality 100.0 %
     Test CRC 5F4870C9
     Copy CRC 5F4870C9
     Accurately ripped (confidence 3)  [BAA0E59D]
     Copy OK

Track 17

     Filename 17 - 17 (5m01-02) Working-The Fall.wav

     Pre-gap length  0:00:04.00

     Peak level 94.4 %
     Track quality 100.0 %
     Test CRC 7AF0F67A
     Copy CRC 7AF0F67A
     Accurately ripped (confidence 3)  [DFCD2461]
     Copy OK

Track 18

     Filename 18 - 18 (5m03) Bazaar.wav

     Pre-gap length  0:00:02.00

     Peak level 64.4 %
     Track quality 100.0 %
     Test CRC 5412901D
     Copy CRC 5412901D
     Accurately ripped (confidence 3)  [9B9CE8F8]
     Copy OK

Track 19

     Filename 19 - 19 (5m04-05) There Is-Training.wav

     Pre-gap length  0:00:02.00

     Peak level 93.0 %
     Track quality 99.8 %
     Test CRC F8AC00C9
     Copy CRC F8AC00C9
     Accurately ripped (confidence 3)  [3FB25250]
     Copy OK

Track 20

     Filename 20 - 20 (5m06) Rejected And Despised.wav

     Pre-gap length  0:00:02.00

     Peak level 82.5 %
     Track quality 100.0 %
     Test CRC 92EDA0CD
     Copy CRC 92EDA0CD
     Accurately ripped (confidence 3)  [3CC15F50]
     Copy OK

Track 21

     Filename 21 - 21 (5m07-08) Painless-I Can't.wav

     Pre-gap length  0:00:02.00

     Peak level 99.5 %
     Track quality 100.0 %
     Test CRC 603286C1
     Copy CRC 603286C1
     Accurately ripped (confidence 3)  [D32868B3]
     Copy OK

Track 22

     Filename 22 - 22 (6m01) Parents Killed.wav

     Pre-gap length  0:00:04.00

     Peak level 66.2 %
     Track quality 100.0 %
     Test CRC 4531438B
     Copy CRC 4531438B
     Accurately ripped (confidence 3)  [C852004E]
     Copy OK

Track 23

     Filename 23 - 23 (6m02) Gun Attraction-Park.wav

     Pre-gap length  0:00:02.00

     Peak level 99.1 %
     Track quality 100.0 %
     Test CRC D6AA691B
     Copy CRC D6AA691B
     Accurately ripped (confidence 2)  [70E9AAD8]
     Copy OK

Track 24

     Filename 24 - 24 (6m03) Gordon-Batman-Train.wav

     Pre-gap length  0:00:02.00

     Peak level 99.9 %
     Track quality 100.0 %
     Test CRC 7FE3B42E
     Copy CRC 7FE3B42E
     Accurately ripped (confidence 3)  [809DDDFB]
     Copy OK

Track 25

     Filename 25 - 25 (6m04) His Life's Work.wav

     Pre-gap length  0:00:02.00

     Peak level 99.9 %
     Track quality 100.0 %
     Test CRC DACF5046
     Copy CRC DACF5046
     Accurately ripped (confidence 3)  [9D87AE83]
     Copy OK

Track 26

     Filename 26 - 26 End Credit Suite.wav

     Pre-gap length  0:00:04.00

     Peak level 99.9 %
     Track quality 100.0 %
     Test CRC 7CF7261F
     Copy CRC 7CF7261F
     Accurately ripped (confidence 3)  [5B68487D]
     Copy OK

All tracks accurately ripped

No errors occurred

End of status report

Код:

REM GENRE Soundtrack
REM DATE 2008
REM DISCID 790ECC1A
REM COMMENT "ExactAudioCopy v0.99pb4"
PERFORMER "Christopher Drake, Robert J. Kral, Kevin Manthei"
TITLE "Batman: Gotham Knight"
FILE "01 - Main Titles - Intro - Interlude - Punk Skater - Trouble at the Dock.wav" WAVE
  TRACK 01 AUDIO
    TITLE "Main Titles / Intro / Interlude / Punk Skater / Trouble At The Dock"
    PERFORMER "Christopher Drake"
    FLAGS DCP
    INDEX 01 00:00:00
  TRACK 02 AUDIO
    TITLE "Living Shadow / Living Shadow Finale"
    PERFORMER "Christopher Drake"
    FLAGS DCP
    INDEX 00 02:28:58
FILE "02 - Living Shadow - Living Shadow Finale.wav" WAVE
    INDEX 01 00:00:00
  TRACK 03 AUDIO
    TITLE "Skater Girl / Trouble In the City"
    PERFORMER "Christopher Drake"
    FLAGS DCP
    INDEX 00 01:45:19
FILE "03 - Skater Girl - Trouble in the City.wav" WAVE
    INDEX 01 00:00:00
  TRACK 04 AUDIO
    TITLE "Batmonster Appears / Batmonster Do-Over / Batmonster Finale"
    PERFORMER "Christopher Drake"
    FLAGS DCP
    INDEX 00 00:50:02
FILE "04 - Batmonster Appears - Batmonster Do-Over - Batmonster Finale.wav" WAVE
    INDEX 01 00:00:00
  TRACK 05 AUDIO
    TITLE "Rooftop Robbery / Robobat"
    PERFORMER "Christopher Drake"
    FLAGS DCP
    INDEX 00 02:18:19
FILE "05 - Rooftop Robbery - Robobat.wav" WAVE
    INDEX 01 00:00:00
  TRACK 06 AUDIO
    TITLE "Have I Got a Story for You Finale"
    PERFORMER "Christopher Drake"
    FLAGS DCP
    INDEX 00 01:44:02
FILE "06 - Have I Got a Story for You Finale.wav" WAVE
    INDEX 01 00:00:00
  TRACK 07 AUDIO
    TITLE Crossfire
    PERFORMER "Kevin Manthei"
    FLAGS DCP
    INDEX 00 01:35:65
FILE "07 - Crossfire.wav" WAVE
    INDEX 01 00:00:00
  TRACK 08 AUDIO
    TITLE Inferno
    PERFORMER "Kevin Manthei"
    FLAGS DCP
    INDEX 00 04:49:41
FILE "08 - Inferno.wav" WAVE
    INDEX 01 00:00:00
  TRACK 09 AUDIO
    TITLE "New Device"
    PERFORMER "Robert J. Kral"
    FLAGS DCP
    INDEX 00 05:48:59
FILE "09 - New Device.wav" WAVE
    INDEX 01 00:00:00
  TRACK 10 AUDIO
    TITLE "Trigger A Device / As Good As Your Drive"
    PERFORMER "Robert J. Kral"
    FLAGS DCP
    INDEX 00 01:22:25
FILE "10 - Trigger a Device - As Good as Your Drive.wav" WAVE
    INDEX 01 00:00:00
  TRACK 11 AUDIO
    TITLE "A Russian in His Grave / It Works Too Well"
    PERFORMER "Robert J. Kral"
    FLAGS DCP
    INDEX 00 01:10:66
FILE "11 - A Russian in His Grave - It Works too Well.wav" WAVE
    INDEX 01 00:00:00
  TRACK 12 AUDIO
    TITLE "In Darkness Dwells Intro"
    PERFORMER "Christopher Drake"
    FLAGS DCP
    INDEX 00 03:53:51
FILE "12 - In Darkness Dwells Intro.wav" WAVE
    INDEX 01 00:00:00
  TRACK 13 AUDIO
    TITLE "Gordon's Cannibal / Ghost Station"
    PERFORMER "Christopher Drake"
    FLAGS DCP
    INDEX 00 01:00:64
FILE "13 - Gordon's Cannibal - Ghost Station.wav" WAVE
    INDEX 01 00:00:00
  TRACK 14 AUDIO
    TITLE "Epidermolytic Hyperkeratosis"
    PERFORMER "Christopher Drake"
    FLAGS DCP
    INDEX 00 03:00:50
FILE "14 - Epidermolytic Hyperkeratosis.wav" WAVE
    INDEX 01 00:00:00
  TRACK 15 AUDIO
    TITLE "Killer Croc / Hallucinations / Scarecrow Interrupted"
    PERFORMER "Christopher Drake"
    FLAGS DCP
    INDEX 00 00:43:56
FILE "15 - Killer Croc - Hallucinations - Scarecrow Interrupted.wav" WAVE
    INDEX 01 00:00:00
  TRACK 16 AUDIO
    TITLE "Escape and End"
    PERFORMER "Christopher Drake"
    FLAGS DCP
    INDEX 00 03:19:69
FILE "16 - Escape and End.wav" WAVE
    INDEX 01 00:00:00
  TRACK 17 AUDIO
    TITLE "Working Through Pain / The Fall"
    PERFORMER "Kevin Manthei"
    FLAGS DCP
    INDEX 00 01:45:48
FILE "17 - Working Through Pain - The Fall.wav" WAVE
    INDEX 01 00:00:00
  TRACK 18 AUDIO
    TITLE Bazaar
    PERFORMER "Kevin Manthei"
    FLAGS DCP
    INDEX 00 01:46:31
FILE "18 - Bazaar.wav" WAVE
    INDEX 01 00:00:00
  TRACK 19 AUDIO
    TITLE "There is Another / Training"
    PERFORMER "Kevin Manthei"
    FLAGS DCP
    INDEX 00 00:26:23
FILE "19 - There is Another - Training.wav" WAVE
    INDEX 01 00:00:00
  TRACK 20 AUDIO
    TITLE "Rejected and Despised"
    PERFORMER "Kevin Manthei"
    FLAGS DCP
    INDEX 00 02:46:00
FILE "20 - Rejected and Despised.wav" WAVE
    INDEX 01 00:00:00
  TRACK 21 AUDIO
    TITLE "Painless Fight / I Can't"
    PERFORMER "Kevin Manthei"
    FLAGS DCP
    INDEX 00 01:30:12
FILE "21 - Painless Fight - I Can't.wav" WAVE
    INDEX 01 00:00:00
  TRACK 22 AUDIO
    TITLE "Parents Killed"
    PERFORMER "Robert J. Kral"
    FLAGS DCP
    INDEX 00 03:23:56
FILE "22 - Parents Killed.wav" WAVE
    INDEX 01 00:00:00
  TRACK 23 AUDIO
    TITLE "Gun Attraction / Park Killing"
    PERFORMER "Robert J. Kral"
    FLAGS DCP
    INDEX 00 00:54:68
FILE "23 - Gun Attraction - Park Killing.wav" WAVE
    INDEX 01 00:00:00
  TRACK 24 AUDIO
    TITLE "Gordon / Batman / The Train"
    PERFORMER "Robert J. Kral"
    FLAGS DCP
    INDEX 00 01:26:43
FILE "24 - Gordon - Batman - The Train.wav" WAVE
    INDEX 01 00:00:00
  TRACK 25 AUDIO
    TITLE "His Life's Quest"
    PERFORMER "Robert J. Kral"
    FLAGS DCP
    INDEX 00 06:14:24
FILE "25 - His Life's Quest.wav" WAVE
    INDEX 01 00:00:00
  TRACK 26 AUDIO
    TITLE "End Credits Suite"
    PERFORMER "Christopher Drake, Robert J. Kral, Kevin Manthei"
    FLAGS DCP
    INDEX 00 00:56:53
FILE "26 - End Credits Suite.wav" WAVE
    INDEX 01 00:00:00
picpicpic
Для увеличения картинки щелкните мышкой по превью

Этот торрент недоступен для скачивания без регистрации, однако доступен по публичной magnet-ссылке (источники с публичных трекеров). Перед использованием ссылки прочтите, пожалуйста Пользовательское соглашение, а также как можно дольше оставайтесь на раздаче! Для того, чтобы скачать сам торрент-файл (который видит больше источников), а также для того, чтобы поблагодарить релизера, вам необходимо зарегистрироваться. Если регистрироваться лень - вы можете также попробовать скачать релиз по нашим партнерским ссылкам ниже. Кроме того, зарегистрированным пользователям не показывается всплывающая реклама при скачивании.

[underverse.me].t85851.torrent
Трекер: Зарегистрирован   [ 09.07.2017 11:09 ]  

Статус: проверено (by garry at 09.07.2017 11:11)
Поблагодарили: пока никто не поблагодарил...
Тип торрента: публичный - доступные источники с открытых трекеров: 
Размер: 335 MB (занимает 0,07 DVDR, для записи нужно 1 болванка DVDR/RW)
 
 
Похожие темы
Форум Тема Автор Торрент Отв. Посл. сооб.
OST & Score - Movie (Score) VA - Цирк Солнца / Цирк дю Солей / Cirque du Soleil (1994-2017) [iTunes AAC M4A, 256 kbps VBR] Web garry
2 | 0

0 | 1737

1

31.07.2015 09:57

OST & Score - Movie (Score) VA - Walt Disney Records: The Legacy Collection (2014-2018) [iTunes AAC M4A, 256 kbps VBR] Web garry
2 | 0

0 | 1406

1

13.05.2016 11:51

OST & Score - Game (Score) VA - Braid (2009) [MP3, 320 kbps] M-i-i-i-ke
1 | 0

0 | 1845

0

02.07.2010 10:09

OST & Score - Game (Score) VA - Napoleon Total War (2011) [MP3, 320 kbps] garry
2 | 0

0 | 1334

0

01.07.2012 12:19

# OST & Score Movie, TV Show & Series, Game (Lossless) (Score) VA - Call of Duty 2 | 3 | 4: Modern Warfare | Zombies | Ghosts | Advanced | Black Ops III | Infinite | WWII (2003-2017) [FLAC (Tracks+.CUE), lossless] garry
4 | 1

1 | 3494

0

01.02.2013 20:34

OST & Score Movie, TV Show & Series, Game (Lossless) (Score) VA - Инструментальные шедевры. Музыка русского кино (2012) [FLAC (Image+.CUE), Lossless] Бишеп
7 | 0

0 | 1984

20

16.01.2014 06:01

OST & Score Movie, TV Show & Series, Game (Lossless) (Score) VA - Бэтмен и Харли Квинн / Batman and Harley Quinn (2017) [FLAC (Tracks), lossless] Web garry
4 | 1

0 | 666

0

30.10.2017 12:37

OST & Score Movie, TV Show & Series, Game (Lossless) (Score) VA - Бэтмен против Двуликого / Batman vs. Two-Face (2017) [FLAC (Tracks), lossless] Web garry
4 | 0

0 | 789

0

30.10.2017 13:25

Архив (саундтреки и караоке) (Score) VA - Call of Duty: Modern Warfare 2 | 3 | Zombies | Ghosts | Advanced | Black Ops III (2010-2015) [iTunes AAC M4A, 256 kbps VBR] Web garry
0 | 0

0 | 3442

0

03.08.2010 02:32

Архив (саундтреки и караоке) (Score) VA - The Longest Day: Ultimate World War Movie Theme Collection (2004) [MP3, 320 kbps] garry
0 | 1

1 | 1989

2

27.11.2015 12:35


Яндекс.Метрика powered by Sphinx


В Н И М А Н И Е
Сайт не распространяет и не хранит электронные версии произведений, а лишь бесплатно и без коммерческой выгоды (не требуя взамен платы,
SMS и т.д.) предоставляет доступ к создаваемому пользователями каталогу ссылок на торрент-файлы, которые содержат только списки хеш-сумм.
Убедительная просьба с жалобами обращаться напрямую к пользователю, разместившему торрент файл.

Вверх