Loading...
Error

Тайна острова сокровищ / Five on a Treasure Island (1-8 серии из 8) (Джералд Ландау) [1957 г., приключения, семейный, DVDRip-AVC] AVO (Кузнецов) + Original

Статистика раздачи
Размер:  1,98 GB   |    Зарегистрирован:  11 месяцев   |    Скачан:  5 раз

Полного источника не было: 3 часа

Сидов:  0  |  0 KB/s  ]   Личеров:  0  |  0 KB/s  ]

* - сиды/пиры с внешних источников

   
 
Автор Сообщение

makkol Пол:Муж

18-Июл-2017 16:04

Тайна острова сокровищ / Five on a Treasure Island


Год выпуска: 1957
Жанр: приключения, семейный
Производство: Великобритания [British Lion Film Corporation]
Режиссер: Джералд Ландау
В ролях: Рел Грейнер, Ричард Палмер, Джиллиан Харрисон, Джон Бейли, Роберт Каудрон, Николас Брюс, Джон Чарльзуорт, Руфус Крюкшенк, Питер Бёртон
Сюжет фильма:
Два брата и сестра - Джулиан, Дик и Энн - приезжают на каникулы к своему дяде. Там они знакомятся с его дочкой - их двоюродной сестрой - Джорджиной, которую все зовут по-мальчишески Джордж. Выясняется, что Джордж принадлежит целый остров, и ребята решают поплыть туда на лодке. На острове они замечают нечто странное...

Фильм по первой книге о Великолепной пятерке — серии детских детективных книг английской писательницы Энид Блайтон.

Качество видео: DVDRip-AVC

Продолжительность: 8 x ~00:15:00
Формат: MKV
Видео: MPEG-4 AVC, 720x576@768x576 (4:3), 25.000 fps, ~1600 kbps
Аудио #1: русский, авторский одноголосый закадровый (Сергей Кузнецов), AC3 2.0, 48 kHz, 192 kbps
Аудио #2: английский, оригинал, AC3 2.0, 48 kHz, 256 kbps

Код:

Формат                                   : Matroska
Версия формата                           : Version 2
Размер файла                             : 231 Мбайт
Продолжительность                        : 15 м.
Общий поток                              : 2093 Кбит/сек
Дата кодирования                         : UTC
Программа кодирования                    : HandBrake 0.10.2 2015060900
Библиотека кодирования                   : Lavf55.12.0

Видео
Идентификатор                            : 1
Формат                                   : AVC
Формат/Информация                        : Advanced Video Codec
Профиль формата                          : High@L4.1
Параметр CABAC формата                   : Да
Параметр ReFrames формата                : 4 кадра
Идентификатор кодека                     : V_MPEG4/ISO/AVC
Продолжительность                        : 15 м.
Битрейт                                  : 1604 Кбит/сек
Ширина                                   : 720 пикселей
Высота                                   : 576 пикселей
Соотношение сторон                       : 4:3
Режим частоты кадров                     : Постоянный
Частота кадров                           : 25,000 кадров/сек
Стандарт вещания                         : PAL
Цветовое пространство                    : YUV
Субдискретизация насыщенности            : 4:2:0
Битовая глубина                          : 8 бит
Тип развёртки                            : Прогрессивная
Бит/(Пиксели*Кадры)                      : 0.155
Размер потока                            : 177 Мбайт (77%)
Библиотека кодирования                   : x264 core 142 r2479 dd79a61
Настройки программы                      : cabac=1 / ref=3 / deblock=1:0:0 / analyse=0x3:0x113 / me=hex / subme=8 / psy=1 / psy_rd=1.00:0.00 / mixed_ref=1 / me_range=16 / chroma_me=1 / trellis=1 / 8x8dct=1 / cqm=0 / deadzone=21,11 / fast_pskip=1 / chroma_qp_offset=-2 / threads=6 / lookahead_threads=1 / sliced_threads=0 / nr=0 / decimate=1 / interlaced=0 / bluray_compat=0 / constrained_intra=0 / bframes=3 / b_pyramid=2 / b_adapt=1 / b_bias=0 / direct=1 / weightb=1 / open_gop=0 / weightp=2 / keyint=250 / keyint_min=25 / scenecut=40 / intra_refresh=0 / rc_lookahead=10 / rc=crf / mbtree=1 / crf=20.0 / qcomp=0.60 / qpmin=0 / qpmax=69 / qpstep=4 / vbv_maxrate=62500 / vbv_bufsize=78125 / crf_max=0.0 / nal_hrd=none / filler=0 / ip_ratio=1.40 / aq=1:1.00
Default                                  : Да
Forced                                   : Нет
Цветовой диапазон                        : Limited
Основные цвета                           : BT.601 PAL
Характеристики трансфера                 : BT.709
Коэффициенты матрицы                     : BT.601

Аудио #1
Идентификатор                            : 2
Формат                                   : AC-3
Формат/Информация                        : Audio Coding 3
Расширение режима                        : CM (complete main)
Параметр Endianness формата              : Big
Идентификатор кодека                     : A_AC3
Продолжительность                        : 15 м.
Вид битрейта                             : Постоянный
Битрейт                                  : 192 Кбит/сек
Каналы                                   : 2 канала
Расположение каналов                     : Front: L R
Частота                                  : 48,0 КГц
Метод сжатия                             : С потерями
Задержка видео                           : 27 мс.
Размер потока                            : 21,2 Мбайт (9%)
Заголовок                                : Stereo
Язык                                     : Russian
Default                                  : Да
Forced                                   : Нет

Аудио #2
Идентификатор                            : 3
Формат                                   : AC-3
Формат/Информация                        : Audio Coding 3
Расширение режима                        : CM (complete main)
Параметр Endianness формата              : Big
Идентификатор кодека                     : A_AC3
Продолжительность                        : 15 м.
Вид битрейта                             : Постоянный
Битрейт                                  : 256 Кбит/сек
Каналы                                   : 2 канала
Расположение каналов                     : Front: L R
Частота                                  : 48,0 КГц
Метод сжатия                             : С потерями
Задержка видео                           : 27 мс.
Размер потока                            : 28,3 Мбайт (12%)
Заголовок                                : Stereo
Язык                                     : English
Default                                  : Нет
Forced                                   : Нет

Меню
00:00:00.000                             : :Chapter 1
00:05:00.280                             : :Chapter 2
00:09:59.960                             : :Chapter 3
picpicpicpicpic
Для увеличения картинки щелкните мышкой по превью

Этот торрент недоступен для скачивания без регистрации, однако доступен по публичной magnet-ссылке (источники с публичных трекеров). Перед использованием ссылки прочтите, пожалуйста Пользовательское соглашение, а также как можно дольше оставайтесь на раздаче! Для того, чтобы скачать сам торрент-файл (который видит больше источников), а также для того, чтобы поблагодарить релизера, вам необходимо зарегистрироваться. Если регистрироваться лень - вы можете также попробовать скачать релиз по нашим партнерским ссылкам ниже. Кроме того, зарегистрированным пользователям не показывается всплывающая реклама при скачивании.

[underverse.me].t86326.torrent
Трекер: Зарегистрирован   [ 18.07.2017 16:04 ]  

Статус: проверено (by makkol at 18.07.2017 16:05)
Поблагодарили: пока никто не поблагодарил...
Тип торрента: публичный - доступные источники с открытых трекеров: 
Размер: 1,98 GB (занимает 0,45 DVDR, для записи нужно 1 болванка DVDR/RW)
 
 

Яндекс.Метрика powered by Sphinx


В Н И М А Н И Е
Сайт не распространяет и не хранит электронные версии произведений, а лишь бесплатно и без коммерческой выгоды (не требуя взамен платы,
SMS и т.д.) предоставляет доступ к создаваемому пользователями каталогу ссылок на торрент-файлы, которые содержат только списки хеш-сумм.
Убедительная просьба с жалобами обращаться напрямую к пользователю, разместившему торрент файл.

Вверх