Loading...
Error

(Blues Rock, Southern Rock) J.J. Cale - To Tulsa and Back (2004) [FLAC (Image+.Cue) Lossless]

Статистика раздачи
Размер:  367 MB   |    Зарегистрирован:  10 месяцев   |    Скачан:  3 раза

Полного источника не было: 10 часов

Сидов:  0  |  0 KB/s  ]   Личеров:  0  |  0 KB/s  ]

* - сиды/пиры с внешних источников

   
 
Автор Сообщение

Бишеп Пол:Муж

25-Июл-2017 16:32

J.J. Cale - To Tulsa and Back

Жанр: Blues Rock, Southern Rock
Год выпуска: 2004
Источник: CD
Производитель диска: Capitol Records ‎– 7243 5797862 0
Аудиокодек: FLAC
Тип рипа: Image+.CUE
Битрейт аудио: lossless
Продолжительность: 00:49:28


Треклист:
01. My Gal
02. Chains of Love
03. New Lover
04. One Step
05. Stone River
06. The Problem
07. Homeless
08. Fancy Dancer
09. Rio
10. These Blues
11. Motormouth
12. Blues for Mama
13. Another Song

Код:

Exact Audio Copy V0.99 prebeta 4 from 23. January 2008

EAC extraction logfile from 27. November 2010, 13:36

J.J. Cale / To Tulsa and Back

Used drive  : PIONEER DVD-RW  DVR-110D   Adapter: 1  ID: 1

Read mode               : Secure
Utilize accurate stream : Yes
Defeat audio cache      : Yes
Make use of C2 pointers : No

Read offset correction                      : 48
Overread into Lead-In and Lead-Out          : No
Fill up missing offset samples with silence : Yes
Delete leading and trailing silent blocks   : No
Null samples used in CRC calculations       : Yes
Used interface                              : Native Win32 interface for Win NT & 2000

Used output format              : User Defined Encoder
Selected bitrate                : 1024 kBit/s
Quality                         : High
Add ID3 tag                     : No
Command line compressor         : C:\Program Files\Exact Audio Copy\FLAC\FLAC.EXE
Additional command line options : -6 -V -T "ARTIST=%a" -T "TITLE=%t" -T "ALBUM=%g" -T "DATE=%y" -T "TRACKNUMBER=%n" -T "GENRE=%m" -T "COMMENT=%e" %s -o %d

TOC of the extracted CD

     Track |   Start  |  Length  | Start sector | End sector
    ---------------------------------------------------------
        1  |  0:00.00 |  4:23.25 |         0    |    19749   
        2  |  4:23.25 |  3:37.42 |     19750    |    36066   
        3  |  8:00.67 |  3:12.68 |     36067    |    50534   
        4  | 11:13.60 |  3:20.42 |     50535    |    65576   
        5  | 14:34.27 |  3:42.23 |     65577    |    82249   
        6  | 18:16.50 |  4:31.37 |     82250    |   102611   
        7  | 22:48.12 |  3:25.03 |    102612    |   117989   
        8  | 26:13.15 |  4:50.05 |    117990    |   139744   
        9  | 31:03.20 |  3:46.65 |    139745    |   156759   
       10  | 34:50.10 |  3:49.22 |    156760    |   173956   
       11  | 38:39.32 |  3:17.33 |    173957    |   188764   
       12  | 41:56.65 |  4:07.10 |    188765    |   207299   
       13  | 46:04.00 |  3:23.70 |    207300    |   222594   

Range status and errors

Selected range

     Filename G:\Torrents\J.J. Cale - To Tulsa and Back\J.J. Cale - To Tulsa and Back.wav

     Peak level 99.8 %
     Range quality 100.0 %
     Test CRC 2DD97D9E
     Copy CRC 2DD97D9E
     Copy OK

No errors occurred

 
AccurateRip summary
 
Track  1  accurately ripped (confidence 13)  [1C296712]
Track  2  accurately ripped (confidence 15)  [22A21B80]
Track  3  accurately ripped (confidence 16)  [A295D849]
Track  4  accurately ripped (confidence 16)  [88A60A38]
Track  5  accurately ripped (confidence 16)  [91C029C3]
Track  6  accurately ripped (confidence 17)  [3F8C2B01]
Track  7  accurately ripped (confidence 15)  [A34F16EE]
Track  8  accurately ripped (confidence 14)  [52A28CC7]
Track  9  accurately ripped (confidence 16)  [68D47987]
Track 10  accurately ripped (confidence 15)  [35275729]
Track 11  accurately ripped (confidence 16)  [374B72A1]
Track 12  accurately ripped (confidence 16)  [EACDBBB9]
Track 13  accurately ripped (confidence 8)  [6E92F348]
 
All tracks accurately ripped

End of status report

Код:

REM GENRE Blues
REM DATE 2004
REM DISCID C10B970D
REM COMMENT "ExactAudioCopy v0.99pb4"
PERFORMER "J.J. Cale"
TITLE "To Tulsa and Back"
FILE "J.J. Cale - To Tulsa and Back.flac" WAVE
  TRACK 01 AUDIO
    TITLE "My Gal"
    PERFORMER "J.J. Cale"
    INDEX 01 00:00:00
  TRACK 02 AUDIO
    TITLE "Chains of Love"
    PERFORMER "J.J. Cale"
    INDEX 01 04:23:25
  TRACK 03 AUDIO
    TITLE "New Lover"
    PERFORMER "J.J. Cale"
    INDEX 01 08:00:67
  TRACK 04 AUDIO
    TITLE "One Step"
    PERFORMER "J.J. Cale"
    INDEX 01 11:13:60
  TRACK 05 AUDIO
    TITLE "Stone River"
    PERFORMER "J.J. Cale"
    INDEX 01 14:34:27
  TRACK 06 AUDIO
    TITLE "The Problem"
    PERFORMER "J.J. Cale"
    INDEX 01 18:16:50
  TRACK 07 AUDIO
    TITLE "Homeless"
    PERFORMER "J.J. Cale"
    INDEX 01 22:48:12
  TRACK 08 AUDIO
    TITLE "Fancy Dancer"
    PERFORMER "J.J. Cale"
    INDEX 01 26:13:15
  TRACK 09 AUDIO
    TITLE "Rio"
    PERFORMER "J.J. Cale"
    INDEX 01 31:03:20
  TRACK 10 AUDIO
    TITLE "These Blues"
    PERFORMER "J.J. Cale"
    INDEX 01 34:50:10
  TRACK 11 AUDIO
    TITLE "Motormouth"
    PERFORMER "J.J. Cale"
    INDEX 01 38:39:32
  TRACK 12 AUDIO
    TITLE "Blues for Mama"
    PERFORMER "J.J. Cale"
    INDEX 01 41:56:65
  TRACK 13 AUDIO
    TITLE "Another Song"
    PERFORMER "J.J. Cale"
    INDEX 01 46:04:00

Этот торрент недоступен для скачивания без регистрации, однако доступен по публичной magnet-ссылке (источники с публичных трекеров). Перед использованием ссылки прочтите, пожалуйста Пользовательское соглашение, а также как можно дольше оставайтесь на раздаче! Для того, чтобы скачать сам торрент-файл (который видит больше источников), а также для того, чтобы поблагодарить релизера, вам необходимо зарегистрироваться. Если регистрироваться лень - вы можете также попробовать скачать релиз по нашим партнерским ссылкам ниже. Кроме того, зарегистрированным пользователям не показывается всплывающая реклама при скачивании.

[underverse.me].t86632.torrent
Трекер: Зарегистрирован   [ 25.07.2017 16:32 ]  

Статус: проверено (by Бишеп at 25.07.2017 16:32)
Поблагодарили: пока никто не поблагодарил...
Тип торрента: публичный - доступные источники с открытых трекеров: 
Размер: 367 MB (занимает 0,08 DVDR, для записи нужно 1 болванка DVDR/RW)
 
 
Похожие темы
Форум Тема Автор Торрент Отв. Посл. сооб.
Blues (Blues Rock) The Charlie Smith Blues Band - Steppin' Down Blues Lane (2012) [MP3, 320 kbps] Jimmy
1 | 0

0 | 1688

7

22.10.2012 13:29

Blues (Blues Rock) Straightup Blues Band - Ain't Got A Clue (2012) [MP3, 320 kbps] NiiggazCPT
1 | 0

0 | 1585

7

04.12.2012 17:39

Blues (Blues Rock) Billy Walton Band - Soul Of A Man (2018) [MP3, 320 kbps CBR] Darkferse
0 | 0

0 | 460

9

19.01.2018 08:56

Blues (Blues Rock) Foxtrot And The Get Down - Roots Too Deep (2017) [MP3, 320 kbps CBR] Darkferse
1 | 0

0 | 986

11

24.02.2017 09:57

Blues (Blues Rock) Tedeschi Trucks Band - Live From The Fox Oakland (2CD) (2017) [MP3, 320 kbps CBR] Darkferse
1 | 0

0 | 847

6

16.03.2017 22:59

Blues (Blues Rock) Robert Walker & the Century Band - Year of the Dog (2017) [MP3, 320 kbps CBR] Darkferse
2 | 0

0 | 700

9

30.03.2017 21:28

Blues (Blues Rock, Indie Rock) The Jibs - The Jibs (EP) (2017) [MP3, 320 kbps CBR] Darkferse
1 | 0

0 | 436

4

06.04.2017 14:02

Blues (Blues Rock) Beggars Blue - New Boots (2017) [MP3, 320 kbps CBR] Darkferse
1 | 0

0 | 814

3

06.04.2017 20:43

Blues (Blues Rock, Delta Blues) Little Hook - Little Hook (2017) [MP3, 320 kbps CBR] Darkferse
1 | 0

0 | 687

4

06.04.2017 20:49

Blues (Blues Rock) The Red Earth Blues Band - The Red Earth Blues Band (2017) [MP3, 320 kbps CBR] Darkferse
1 | 0

0 | 840

4

06.04.2017 20:54


Яндекс.Метрика powered by Sphinx


В Н И М А Н И Е
Сайт не распространяет и не хранит электронные версии произведений, а лишь бесплатно и без коммерческой выгоды (не требуя взамен платы,
SMS и т.д.) предоставляет доступ к создаваемому пользователями каталогу ссылок на торрент-файлы, которые содержат только списки хеш-сумм.
Убедительная просьба с жалобами обращаться напрямую к пользователю, разместившему торрент файл.

Вверх