Loading...
Error

(Acоustic Blues) Eric Clapton - Unplugged (1992) [FLAC (Image+.Cue) Lossless]

Статистика раздачи
Размер:  418 MB   |    Зарегистрирован:  10 месяцев   |    Скачан:  3 раза

Полного источника не было: 2 месяца 16 дней

Сидов:  0  |  0 KB/s  ]   Личеров:  0  |  0 KB/s  ]

* - сиды/пиры с внешних источников

   
 
Автор Сообщение

Бишеп Пол:Муж

01-Авг-2017 16:43

Eric Clapton - Unplugged

Жанр: Acоustic Blues
Год выпуска: 1992
Источник: CD
Производитель диска: Time Warner Company/Reprise Records - 9 45024-2
Аудиокодек: FLAC
Тип рипа: Image+.CUE
Битрейт аудио: lossless
Продолжительность: 01:01:47


Треклист:
01. Signe
02. Before You Accuse Me
03. Hey Hey
04. Tears in Heaven
05. Lonely Stranger
06. Nobody Knows You When You're Down & Out
07. Layla
08. Running on Faith
09. Walkin' Blues
10. Alberta
11. San Francisco Bay Blues
12. Malted Milk
13. Old Love
14. Rollin' & Tumblin'

Код:

Exact Audio Copy V0.99 prebeta 4 from 23. January 2008

EAC extraction logfile from 18. April 2011, 10:31

Eric Clapton / Unplugged

Used drive  : PIONEER DVD-RW  DVR-110D   Adapter: 1  ID: 1

Read mode               : Secure
Utilize accurate stream : Yes
Defeat audio cache      : Yes
Make use of C2 pointers : No

Read offset correction                      : 48
Overread into Lead-In and Lead-Out          : No
Fill up missing offset samples with silence : Yes
Delete leading and trailing silent blocks   : No
Null samples used in CRC calculations       : Yes
Used interface                              : Native Win32 interface for Win NT & 2000

Used output format              : User Defined Encoder
Selected bitrate                : 1024 kBit/s
Quality                         : High
Add ID3 tag                     : No
Command line compressor         : C:\Program Files\FLAC\flac.exe
Additional command line options : -8 -V %s

TOC of the extracted CD

     Track |   Start  |  Length  | Start sector | End sector
    ---------------------------------------------------------
        1  |  0:00.32 |  3:13.38 |        32    |    14544   
        2  |  3:13.70 |  3:44.10 |     14545    |    31354   
        3  |  6:58.05 |  3:16.35 |     31355    |    46089   
        4  | 10:14.40 |  4:36.07 |     46090    |    66796   
        5  | 14:50.47 |  5:27.18 |     66797    |    91339   
        6  | 20:17.65 |  3:49.12 |     91340    |   108526   
        7  | 24:07.02 |  4:46.08 |    108527    |   129984   
        8  | 28:53.10 |  6:29.50 |    129985    |   159209   
        9  | 35:22.60 |  3:37.27 |    159210    |   175511   
       10  | 39:00.12 |  3:42.25 |    175512    |   192186   
       11  | 42:42.37 |  3:23.25 |    192187    |   207436   
       12  | 46:05.62 |  3:36.35 |    207437    |   223671   
       13  | 49:42.22 |  7:52.65 |    223672    |   259136   
       14  | 57:35.12 |  4:11.73 |    259137    |   278034   

Range status and errors

Selected range

     Filename D:\Torrents\Eric Clapton - Unplugged\Eric Clapton - Unplugged.wav

     Peak level 99.8 %
     Range quality 100.0 %
     Test CRC 3340550E
     Copy CRC 3340550E
     Copy OK

No errors occurred

 
AccurateRip summary
 
Track  1  accurately ripped (confidence 69)  [0182A317]
Track  2  accurately ripped (confidence 70)  [3E53343B]
Track  3  accurately ripped (confidence 70)  [422BB88D]
Track  4  accurately ripped (confidence 69)  [5A1EA7ED]
Track  5  accurately ripped (confidence 69)  [31EA9ECD]
Track  6  accurately ripped (confidence 69)  [49EF28F6]
Track  7  accurately ripped (confidence 70)  [70B5F1F1]
Track  8  accurately ripped (confidence 71)  [2D7AA4F5]
Track  9  accurately ripped (confidence 69)  [81D9FF05]
Track 10  accurately ripped (confidence 69)  [0FB75270]
Track 11  accurately ripped (confidence 68)  [95551801]
Track 12  accurately ripped (confidence 69)  [7CF165C9]
Track 13  accurately ripped (confidence 65)  [3AD22968]
Track 14  accurately ripped (confidence 64)  [300C2E13]
 
All tracks accurately ripped

End of status report

Код:

REM GENRE Blues
REM DATE 1992
REM DISCID CB0E7B0E
REM COMMENT "ExactAudioCopy v0.99pb4"
PERFORMER "Eric Clapton"
TITLE "Unplugged"
FILE "Eric Clapton - Unplugged.flac" WAVE
  TRACK 01 AUDIO
    TITLE "Signe"
    PERFORMER "Eric Clapton"
    INDEX 00 00:00:00
    INDEX 01 00:00:32
  TRACK 02 AUDIO
    TITLE "Before You Accuse Me"
    PERFORMER "Eric Clapton"
    INDEX 01 03:13:70
  TRACK 03 AUDIO
    TITLE "Hey Hey"
    PERFORMER "Eric Clapton"
    INDEX 01 06:58:05
  TRACK 04 AUDIO
    TITLE "Tears in Heaven"
    PERFORMER "Eric Clapton"
    INDEX 01 10:14:40
  TRACK 05 AUDIO
    TITLE "Lonely Stranger"
    PERFORMER "Eric Clapton"
    INDEX 01 14:50:47
  TRACK 06 AUDIO
    TITLE "Nobody Knows You When You're Down & Out"
    PERFORMER "Eric Clapton"
    INDEX 01 20:17:65
  TRACK 07 AUDIO
    TITLE "Layla"
    PERFORMER "Eric Clapton"
    INDEX 01 24:07:02
  TRACK 08 AUDIO
    TITLE "Running on Faith"
    PERFORMER "Eric Clapton"
    INDEX 01 28:53:10
  TRACK 09 AUDIO
    TITLE "Walkin' Blues"
    PERFORMER "Eric Clapton"
    INDEX 01 35:22:60
  TRACK 10 AUDIO
    TITLE "Alberta"
    PERFORMER "Eric Clapton"
    INDEX 01 39:00:12
  TRACK 11 AUDIO
    TITLE "San Francisco Bay Blues"
    PERFORMER "Eric Clapton"
    INDEX 01 42:42:37
  TRACK 12 AUDIO
    TITLE "Malted Milk"
    PERFORMER "Eric Clapton"
    INDEX 01 46:05:62
  TRACK 13 AUDIO
    TITLE "Old Love"
    PERFORMER "Eric Clapton"
    INDEX 01 49:42:22
  TRACK 14 AUDIO
    TITLE "Rollin' & Tumblin'"
    PERFORMER "Eric Clapton"
    INDEX 00 57:34:25
    INDEX 01 57:35:12

Этот торрент недоступен для скачивания без регистрации, однако доступен по публичной magnet-ссылке (источники с публичных трекеров). Перед использованием ссылки прочтите, пожалуйста Пользовательское соглашение, а также как можно дольше оставайтесь на раздаче! Для того, чтобы скачать сам торрент-файл (который видит больше источников), а также для того, чтобы поблагодарить релизера, вам необходимо зарегистрироваться. Если регистрироваться лень - вы можете также попробовать скачать релиз по нашим партнерским ссылкам ниже. Кроме того, зарегистрированным пользователям не показывается всплывающая реклама при скачивании.

[underverse.me].t86843.torrent
Трекер: Зарегистрирован   [ 01.08.2017 16:43 ]  

Статус: проверено (by Бишеп at 01.08.2017 16:44)
Поблагодарили: пока никто не поблагодарил...
Тип торрента: публичный - доступные источники с открытых трекеров: 
Размер: 418 MB (занимает 0,09 DVDR, для записи нужно 1 болванка DVDR/RW)
 
 

Яндекс.Метрика powered by Sphinx


В Н И М А Н И Е
Сайт не распространяет и не хранит электронные версии произведений, а лишь бесплатно и без коммерческой выгоды (не требуя взамен платы,
SMS и т.д.) предоставляет доступ к создаваемому пользователями каталогу ссылок на торрент-файлы, которые содержат только списки хеш-сумм.
Убедительная просьба с жалобами обращаться напрямую к пользователю, разместившему торрент файл.

Вверх