Loading...
Error

(Blues Rock) Ayron Jones - Audio Paint Job (2017) [FLAC (Tracks+.Cue), Lossless]

Статистика раздачи
Размер:  337 MB   |    Зарегистрирован:  10 месяцев   |    Скачан:  6 раз

Полного источника не было: 16 дней

Сидов:  0  |  0 KB/s  ]   Личеров:  0  |  0 KB/s  ]

* - сиды/пиры с внешних источников

   
 
Автор Сообщение

Бишеп Пол:Муж

03-Авг-2017 14:17

Ayron Jones - Audio Paint Job

Жанр: Blues Rock
Год выпуска: 2017
Источник: CD
Производитель диска: Sunyata Records - AJ002
Аудиокодек: FLAC
Тип рипа: Tracks+.CUE
Битрейт аудио: lossless
Продолжительность: 00:55:46


Треклист:
01. Take Me Away
02. Emily
03. It's Over When It's Over
04. Mr. Jones
05. Rock Star
06. Boys From The Puget Sound
07. West Coast Feeling
08. Play Me A Song
09. Take Your Time
10. Stand Up (Take Your Power Back)
11. Lay Your Body Down
12. Be There With You
13. Love Is The Answer
14. Yesterday

Код:

Exact Audio Copy V1.1 from 23. June 2015

EAC extraction logfile from 29. May 2017, 14:55

Ayron Jones / Audio Paint Job

Used drive  : HL-DT-STDVDRAM GT50N   Adapter: 1  ID: 0

Read mode               : Secure
Utilize accurate stream : Yes
Defeat audio cache      : Yes
Make use of C2 pointers : No

Read offset correction                      : 103
Overread into Lead-In and Lead-Out          : No
Fill up missing offset samples with silence : Yes
Delete leading and trailing silent blocks   : No
Null samples used in CRC calculations       : Yes
Used interface                              : Native Win32 interface for Win NT & 2000
Gap handling                                : Appended to previous track

Used output format              : User Defined Encoder
Selected bitrate                : 1024 kBit/s
Quality                         : High
Add ID3 tag                     : No
Command line compressor         : C:\Program Files (x86)\Exact Audio Copy\Flac\flac.exe
Additional command line options : -8 -e -V -T "ARTIST=%artist%" -T "TITLE=%title%" -T "ALBUM=%albumtitle%" -T "DATE=%year%" -T "TRACKNUMBER=%tracknr%" -T "GENRE=%genre%" -T "PERFORMER=%albuminterpret%" -T "COMPOSER=%composer%" %haslyrics%--tag-from-file=LYRICS="%lyricsfile%"%haslyrics% -T "ALBUMARTIST=%albumartist%" -T "DISCNUMBER=%cdnumber%" -T "TOTALDISCS=%totalcds%" -T "TOTALTRACKS=%numtracks%" -T "COMMENT=%comment%" %source% -o %dest%

TOC of the extracted CD

     Track |   Start  |  Length  | Start sector | End sector
    ---------------------------------------------------------
        1  |  0:00.00 |  4:12.50 |         0    |    18949   
        2  |  4:12.50 |  4:04.47 |     18950    |    37296   
        3  |  8:17.22 |  3:28.03 |     37297    |    52899   
        4  | 11:45.25 |  2:04.30 |     52900    |    62229   
        5  | 13:49.55 |  4:26.32 |     62230    |    82211   
        6  | 18:16.12 |  3:30.24 |     82212    |    97985   
        7  | 21:46.36 |  3:28.13 |     97986    |   113598   
        8  | 25:14.49 |  4:46.35 |    113599    |   135083   
        9  | 30:01.09 |  4:40.37 |    135084    |   156120   
       10  | 34:41.46 |  3:27.32 |    156121    |   171677   
       11  | 38:09.03 |  3:47.25 |    171678    |   188727   
       12  | 41:56.28 |  3:20.73 |    188728    |   203800   
       13  | 45:17.26 |  5:23.12 |    203801    |   228037   
       14  | 50:40.38 |  5:05.15 |    228038    |   250927   

Track  1

     Filename C:\Rips v2\Ayron Jones - Audio Paint Job (FLAC)\01 - Take Me Away.wav

     Pre-gap length  0:00:02.00

     Peak level 99.0 %
     Extraction speed 2.0 X
     Track quality 99.9 %
     Test CRC 974CF445
     Copy CRC 974CF445
     Track not present in AccurateRip database
     Copy OK

Track  2

     Filename C:\Rips v2\Ayron Jones - Audio Paint Job (FLAC)\02 - Emily.wav

     Peak level 99.5 %
     Extraction speed 2.7 X
     Track quality 100.0 %
     Test CRC 45FE5CDE
     Copy CRC 45FE5CDE
     Track not present in AccurateRip database
     Copy OK

Track  3

     Filename C:\Rips v2\Ayron Jones - Audio Paint Job (FLAC)\03 - It's Over When It's Over.wav

     Pre-gap length  0:00:02.00

     Peak level 89.9 %
     Extraction speed 2.8 X
     Track quality 100.0 %
     Test CRC 6CBA2195
     Copy CRC 6CBA2195
     Track not present in AccurateRip database
     Copy OK

Track  4

     Filename C:\Rips v2\Ayron Jones - Audio Paint Job (FLAC)\04 - Mr. Jones.wav

     Pre-gap length  0:00:02.00

     Peak level 99.5 %
     Extraction speed 2.7 X
     Track quality 100.0 %
     Test CRC A16DDB59
     Copy CRC A16DDB59
     Track not present in AccurateRip database
     Copy OK

Track  5

     Filename C:\Rips v2\Ayron Jones - Audio Paint Job (FLAC)\05 - Rock Star.wav

     Peak level 99.8 %
     Extraction speed 3.2 X
     Track quality 100.0 %
     Test CRC A3E93832
     Copy CRC A3E93832
     Track not present in AccurateRip database
     Copy OK

Track  6

     Filename C:\Rips v2\Ayron Jones - Audio Paint Job (FLAC)\06 - Boys From the Puget Sound.wav

     Pre-gap length  0:00:01.26

     Peak level 99.1 %
     Extraction speed 2.7 X
     Track quality 100.0 %
     Test CRC A5B13AED
     Copy CRC A5B13AED
     Track not present in AccurateRip database
     Copy OK

Track  7

     Filename C:\Rips v2\Ayron Jones - Audio Paint Job (FLAC)\07 - West Coast Feeling.wav

     Pre-gap length  0:00:00.60

     Peak level 99.8 %
     Extraction speed 1.6 X
     Track quality 99.9 %
     Test CRC 1E66A7E0
     Copy CRC 1E66A7E0
     Track not present in AccurateRip database
     Copy OK

Track  8

     Filename C:\Rips v2\Ayron Jones - Audio Paint Job (FLAC)\08 - Play Me a Song.wav

     Pre-gap length  0:00:01.66

     Peak level 87.1 %
     Extraction speed 2.1 X
     Track quality 99.9 %
     Test CRC D6084417
     Copy CRC D6084417
     Track not present in AccurateRip database
     Copy OK

Track  9

     Filename C:\Rips v2\Ayron Jones - Audio Paint Job (FLAC)\09 - Take Your Time.wav

     Peak level 99.0 %
     Extraction speed 3.3 X
     Track quality 99.9 %
     Test CRC 98F0DDBF
     Copy CRC 98F0DDBF
     Track not present in AccurateRip database
     Copy OK

Track 10

     Filename C:\Rips v2\Ayron Jones - Audio Paint Job (FLAC)\10 - Stand Up (Take Your Power Back).wav

     Peak level 99.1 %
     Extraction speed 4.0 X
     Track quality 100.0 %
     Test CRC 4A3219A9
     Copy CRC 4A3219A9
     Track not present in AccurateRip database
     Copy OK

Track 11

     Filename C:\Rips v2\Ayron Jones - Audio Paint Job (FLAC)\11 - Lay Your Body Down.wav

     Pre-gap length  0:00:00.13

     Peak level 99.0 %
     Extraction speed 4.2 X
     Track quality 100.0 %
     Test CRC 82712277
     Copy CRC 82712277
     Track not present in AccurateRip database
     Copy OK

Track 12

     Filename C:\Rips v2\Ayron Jones - Audio Paint Job (FLAC)\12 - Be There With You.wav

     Pre-gap length  0:00:02.00

     Peak level 99.2 %
     Extraction speed 4.3 X
     Track quality 100.0 %
     Test CRC 5D415DDB
     Copy CRC 5D415DDB
     Track not present in AccurateRip database
     Copy OK

Track 13

     Filename C:\Rips v2\Ayron Jones - Audio Paint Job (FLAC)\13 - Love is the Answer.wav

     Pre-gap length  0:00:00.26

     Peak level 98.9 %
     Extraction speed 4.8 X
     Track quality 100.0 %
     Test CRC 47946E5E
     Copy CRC 47946E5E
     Track not present in AccurateRip database
     Copy OK

Track 14

     Filename C:\Rips v2\Ayron Jones - Audio Paint Job (FLAC)\14 - Yesterday.wav

     Peak level 99.5 %
     Extraction speed 4.9 X
     Track quality 100.0 %
     Test CRC 64AB6369
     Copy CRC 64AB6369
     Track not present in AccurateRip database
     Copy OK

None of the tracks are present in the AccurateRip database

No errors occurred

End of status report

---- CUETools DB Plugin V2.1.6

[CTDB TOCID: KhBrnQPBXO.jxOm8M.2HINlKJ_w-] disk not present in database
Submit result: KhBrnQPBXO.jxOm8M.2HINlKJ_w- has been uploaded

==== Log checksum 478FC0480C800EF3147B9C2F0A2AC98595858DF93E9CFEAAE90338E208E3A8AE ====

Код:

REM DATE 2017
REM DISCID BB0D110E
REM COMMENT "ExactAudioCopy v1.1"
PERFORMER "Ayron Jones"
TITLE "Audio Paint Job"
FILE "01 - Take Me Away.wav" WAVE
  TRACK 01 AUDIO
    TITLE "Take Me Away"
    PERFORMER "Ayron Jones"
    INDEX 01 00:00:00
FILE "02 - Emily.wav" WAVE
  TRACK 02 AUDIO
    TITLE "Emily"
    PERFORMER "Ayron Jones"
    INDEX 01 00:00:00
  TRACK 03 AUDIO
    TITLE "It's Over When It's Over"
    PERFORMER "Ayron Jones"
    INDEX 00 04:02:47
FILE "03 - It's Over When It's Over.wav" WAVE
    INDEX 01 00:00:00
  TRACK 04 AUDIO
    TITLE "Mr. Jones"
    PERFORMER "Ayron Jones"
    INDEX 00 03:26:03
FILE "04 - Mr. Jones.wav" WAVE
    INDEX 01 00:00:00
FILE "05 - Rock Star.wav" WAVE
  TRACK 05 AUDIO
    TITLE "Rock Star"
    PERFORMER "Ayron Jones"
    INDEX 01 00:00:00
  TRACK 06 AUDIO
    TITLE "Boys From the Puget Sound"
    PERFORMER "Ayron Jones"
    INDEX 00 04:25:12
FILE "06 - Boys From the Puget Sound.wav" WAVE
    INDEX 01 00:00:00
  TRACK 07 AUDIO
    TITLE "West Coast Feeling"
    PERFORMER "Ayron Jones"
    INDEX 00 03:29:54
FILE "07 - West Coast Feeling.wav" WAVE
    INDEX 01 00:00:00
  TRACK 08 AUDIO
    TITLE "Play Me a Song"
    PERFORMER "Ayron Jones"
    INDEX 00 03:26:38
FILE "08 - Play Me a Song.wav" WAVE
    INDEX 01 00:00:00
FILE "09 - Take Your Time.wav" WAVE
  TRACK 09 AUDIO
    TITLE "Take Your Time"
    PERFORMER "Ayron Jones"
    INDEX 01 00:00:00
FILE "10 - Stand Up (Take Your Power Back).wav" WAVE
  TRACK 10 AUDIO
    TITLE "Stand Up (Take Your Power Back)"
    PERFORMER "Ayron Jones"
    INDEX 01 00:00:00
  TRACK 11 AUDIO
    TITLE "Lay Your Body Down"
    PERFORMER "Ayron Jones"
    INDEX 00 03:27:22
FILE "11 - Lay Your Body Down.wav" WAVE
    INDEX 01 00:00:00
  TRACK 12 AUDIO
    TITLE "Be There With You"
    PERFORMER "Ayron Jones"
    INDEX 00 03:45:25
FILE "12 - Be There With You.wav" WAVE
    INDEX 01 00:00:00
  TRACK 13 AUDIO
    TITLE "Love is the Answer"
    PERFORMER "Ayron Jones"
    INDEX 00 03:20:53
FILE "13 - Love is the Answer.wav" WAVE
    INDEX 01 00:00:00
FILE "14 - Yesterday.wav" WAVE
  TRACK 14 AUDIO
    TITLE "Yesterday"
    PERFORMER "Ayron Jones"
    INDEX 01 00:00:00

Этот торрент недоступен для скачивания без регистрации, однако доступен по публичной magnet-ссылке (источники с публичных трекеров). Перед использованием ссылки прочтите, пожалуйста Пользовательское соглашение, а также как можно дольше оставайтесь на раздаче! Для того, чтобы скачать сам торрент-файл (который видит больше источников), а также для того, чтобы поблагодарить релизера, вам необходимо зарегистрироваться. Если регистрироваться лень - вы можете также попробовать скачать релиз по нашим партнерским ссылкам ниже. Кроме того, зарегистрированным пользователям не показывается всплывающая реклама при скачивании.

[underverse.me].t86880.torrent
Трекер: Зарегистрирован   [ 03.08.2017 14:17 ]  

Статус: проверено (by Бишеп at 03.08.2017 14:17)
Поблагодарили: пока никто не поблагодарил...
Тип торрента: публичный - доступные источники с открытых трекеров: 
Размер: 337 MB (занимает 0,08 DVDR, для записи нужно 1 болванка DVDR/RW)
 
 
Похожие темы
Форум Тема Автор Торрент Отв. Посл. сооб.
Blues (Blues Rock) The Charlie Smith Blues Band - Steppin' Down Blues Lane (2012) [MP3, 320 kbps] Jimmy
1 | 0

0 | 1688

7

22.10.2012 13:29

Blues (Blues Rock) Straightup Blues Band - Ain't Got A Clue (2012) [MP3, 320 kbps] NiiggazCPT
1 | 0

0 | 1585

7

04.12.2012 17:39

Blues (Blues Rock) Billy Walton Band - Soul Of A Man (2018) [MP3, 320 kbps CBR] Darkferse
0 | 0

0 | 460

9

19.01.2018 08:56

Blues (Blues Rock) Foxtrot And The Get Down - Roots Too Deep (2017) [MP3, 320 kbps CBR] Darkferse
1 | 0

0 | 985

11

24.02.2017 09:57

Blues (Blues Rock) Tedeschi Trucks Band - Live From The Fox Oakland (2CD) (2017) [MP3, 320 kbps CBR] Darkferse
1 | 0

0 | 847

6

16.03.2017 22:59

Blues (Blues Rock) Robert Walker & the Century Band - Year of the Dog (2017) [MP3, 320 kbps CBR] Darkferse
2 | 0

0 | 700

9

30.03.2017 21:28

Blues (Blues Rock, Indie Rock) The Jibs - The Jibs (EP) (2017) [MP3, 320 kbps CBR] Darkferse
1 | 0

0 | 436

4

06.04.2017 14:02

Blues (Blues Rock) Beggars Blue - New Boots (2017) [MP3, 320 kbps CBR] Darkferse
1 | 0

0 | 814

3

06.04.2017 20:43

Blues (Blues Rock, Delta Blues) Little Hook - Little Hook (2017) [MP3, 320 kbps CBR] Darkferse
1 | 0

0 | 687

4

06.04.2017 20:49

Blues (Blues Rock) The Red Earth Blues Band - The Red Earth Blues Band (2017) [MP3, 320 kbps CBR] Darkferse
1 | 0

0 | 840

4

06.04.2017 20:54


Яндекс.Метрика powered by Sphinx


В Н И М А Н И Е
Сайт не распространяет и не хранит электронные версии произведений, а лишь бесплатно и без коммерческой выгоды (не требуя взамен платы,
SMS и т.д.) предоставляет доступ к создаваемому пользователями каталогу ссылок на торрент-файлы, которые содержат только списки хеш-сумм.
Убедительная просьба с жалобами обращаться напрямую к пользователю, разместившему торрент файл.

Вверх