Loading...
Error

Чужой: Завет / Alien: Covenant (Ридли Скотт) [2017 г., ужасы, фантастика, триллер, BD-Remux] Dub + Original + Sub

Статистика раздачи
Размер:  26,7 GB   |    Зарегистрирован:  9 месяцев   |    Скачан:  16 раз

Полного источника не было: 2 часа 13 минут

Сидов:  0  |  0 KB/s  ]   Личеров:  0  |  0 KB/s  ]

* - сиды/пиры с внешних источников

   
 
Автор Сообщение

makkol Пол:Муж

01-Сен-2017 16:10

Чужой: Завет / Alien: Covenant
«Беги»


Год выпуска: 2017
Жанр: ужасы, фантастика, триллер
Производство: США , Австралия , Новая Зеландия , Великобритания [20th Century Fox Film Corporation, Brandywine Productions, Scott Free Productions, TSG Entertainment]
Режиссер: Ридли Скотт
В ролях: Майкл Фассбендер, Кэтрин Уотерстон, Билли Крудап, Дэнни МакБрайд, Демиан Бишир, Кармен Эджого, Джусси Смоллетт, Калли Эрнандес, Эми Саймец, Натаниель Дин
Сюжет фильма:
2104 год. Колониальный корабль "Завет" с живыми людьми на борту бороздит просторы большого космоса на пути к неосвоенной целине. Попав в нейтринную вспышку и отделавшись легким испугом, экипаж получает загадочный сигнал с неизвестной планеты, на которой есть все условия для жизни. После непродолжительных колебаний команда прокладывает новый курс к источнику сигнала и вскоре оказывается в земном раю посреди рекордного урожая пшеницы. Однако, головокружение от успехов прерывает встреча с жертвами отсутствия генетического контроля и единственным выжившим членом экспедиции "Прометея" - андроидом Дэвидом. Неизведанный рай оборачивается суицидальным кошмаром с жестоким надругательством над психикой, купанием в соляной кислоте и поиском духовного смысла.

  • Мировая премьера: 4 мая 2017
  • Российская премьера: 18 мая 2017


Качество видео: BD-Remux

Продолжительность: 02:02:03
Формат: MKV
Видео: MPEG-4 AVC, 1920x1080 (16:9), 23.976 fps, 25.0 Mbps
Аудио #1: русский, дублированный (лицензия Blu-ray EUR), DTS 5.1, 48 kHz, 768 kbps
Аудио #2: английский, оригинал, DTS-HD MA 7.1, 48 kHz, 5341 kbps
Аудио #3: английский, commentary by director Ridley Scott, AC3 2.0, 48 kHz, 224 kbps
Субтитры: русские (forced, 2 x full), английские (full, SDH, SDH Colored) вшитые отключаемые

Код:

Format : Matroska
Format version : Version 4 / Version 2
File size : 26.7 GiB
Duration : 2 h 2 min
Overall bit rate mode : Variable
Overall bit rate : 31.3 Mb/s
Encoded date : UTC 2017-08-31 19:04:52
Writing application : mkvmerge v15.0.0 ('Duel with the Devil') 64-bit
Writing library : libebml v1.3.5 + libmatroska v1.4.5

Video
ID : 1
Format : AVC
Format/Info : Advanced Video Codec
Format profile : High@L4.1
Format settings, CABAC : Yes
Format settings, RefFrames : 4 frames
Codec ID : V_MPEG4/ISO/AVC
Duration : 2 h 2 min
Bit rate mode : Variable
Bit rate : 25.0 Mb/s
Maximum bit rate : 31.0 Mb/s
Width : 1 920 pixels
Height : 1 080 pixels
Display aspect ratio : 16:9
Frame rate mode : Constant
Frame rate : 23.976 (24000/1001) FPS
Color space : YUV
Chroma subsampling : 4:2:0
Bit depth : 8 bits
Scan type : Progressive
Bits/(Pixel*Frame) : 0.502
Stream size : 21.3 GiB (80%)
Language : English
Default : Yes
Forced : No

Audio #1
ID : 2
Format : DTS
Format/Info : Digital Theater Systems
Mode : 16
Format settings, Endianness : Big
Codec ID : A_DTS
Duration : 2 h 2 min
Bit rate mode : Constant
Bit rate : 768 kb/s
Channel(s) : 6 channels
Channel positions : Front: L C R, Side: L R, LFE
Sampling rate : 48.0 kHz
Frame rate : 93.750 FPS (512 SPF)
Bit depth : 24 bits
Compression mode : Lossy
Stream size : 670 MiB (2%)
Title : Dub [License]
Language : Russian
Default : Yes
Forced : No

Audio #2
ID : 3
Format : DTS
Format/Info : Digital Theater Systems
Format profile : MA / ES Matrix / Core
Mode : 16
Format settings, Endianness : Big
Codec ID : A_DTS
Duration : 2 h 2 min
Bit rate mode : Variable / Constant / Constant
Bit rate : 5 341 kb/s / 1 509 kb/s / 1 509 kb/s
Channel(s) : 8 channels / 7 channels / 6 channels
Channel positions : Front: L C R, Side: L R, Back: L R, LFE / Front: L C R, Side: L R, Back: C, LFE / Front: L C R, Side: L R, LFE
Sampling rate : 48.0 kHz
Frame rate : 93.750 FPS (512 SPF)
Bit depth : 24 bits
Compression mode : Lossless / Lossy / Lossy
Stream size : 4.55 GiB (17%)
Title : Original
Language : English
Default : No
Forced : No

Audio #3
ID : 4
Format : AC-3
Format/Info : Audio Coding 3
Format settings, Endianness : Big
Codec ID : A_AC3
Duration : 2 h 2 min
Bit rate mode : Constant
Bit rate : 224 kb/s
Channel(s) : 2 channels
Channel positions : Front: L R
Sampling rate : 48.0 kHz
Frame rate : 31.250 FPS (1536 SPF)
Bit depth : 16 bits
Compression mode : Lossy
Stream size : 196 MiB (1%)
Title : Commentary by Director Ridley Scott
Language : English
Service kind : Complete Main
Default : No
Forced : No

Text #1
ID : 5
Format : UTF-8
Codec ID : S_TEXT/UTF8
Codec ID/Info : UTF-8 Plain Text
Duration : 1 h 55 min
Bit rate : 0 b/s
Count of elements : 8
Stream size : 413 Bytes (0%)
Title : Forced [iTunes]
Language : Russian
Default : Yes
Forced : No

Text #2
ID : 6
Format : UTF-8
Codec ID : S_TEXT/UTF8
Codec ID/Info : UTF-8 Plain Text
Duration : 2 h 0 min
Bit rate : 67 b/s
Count of elements : 1331
Stream size : 59.3 KiB (0%)
Title : Full [iTunes]
Language : Russian
Default : No
Forced : No

Text #3
ID : 7
Format : UTF-8
Codec ID : S_TEXT/UTF8
Codec ID/Info : UTF-8 Plain Text
Duration : 1 h 55 min
Bit rate : 69 b/s
Count of elements : 862
Stream size : 58.5 KiB (0%)
Title : Full [Doctor Joker]
Language : Russian
Default : No
Forced : No

Text #4
ID : 8
Format : UTF-8
Codec ID : S_TEXT/UTF8
Codec ID/Info : UTF-8 Plain Text
Duration : 1 h 54 min
Bit rate : 43 b/s
Count of elements : 1451
Stream size : 36.6 KiB (0%)
Title : Full
Language : English
Default : No
Forced : No

Text #5
ID : 9
Format : UTF-8
Codec ID : S_TEXT/UTF8
Codec ID/Info : UTF-8 Plain Text
Duration : 1 h 54 min
Bit rate : 52 b/s
Count of elements : 1709
Stream size : 44.2 KiB (0%)
Title : SDH
Language : English
Default : No
Forced : No

Text #6
ID : 10
Format : UTF-8
Codec ID : S_TEXT/UTF8
Codec ID/Info : UTF-8 Plain Text
Duration : 1 h 54 min
Bit rate : 81 b/s
Count of elements : 1709
Stream size : 68.3 KiB (0%)
Title : SDH Colored
Language : English
Default : No
Forced : No

Menu
00:00:00.000 : en:00:00:00.000
00:04:47.662 : en:00:04:47.662
00:13:07.495 : en:00:13:07.495
00:18:11.924 : en:00:18:11.924
00:22:46.448 : en:00:22:46.448
00:27:51.169 : en:00:27:51.169
00:33:12.908 : en:00:33:12.908
00:37:18.736 : en:00:37:18.736
00:42:19.912 : en:00:42:19.912
00:47:43.694 : en:00:47:43.694
00:52:04.371 : en:00:52:04.371
00:55:56.270 : en:00:55:56.270
01:00:17.447 : en:01:00:17.447
01:06:20.643 : en:01:06:20.643
01:11:25.031 : en:01:11:25.031
01:16:35.883 : en:01:16:35.883
01:21:10.032 : en:01:21:10.032
01:28:18.793 : en:01:28:18.793
01:31:21.559 : en:01:31:21.559
01:34:52.437 : en:01:34:52.437
01:39:23.666 : en:01:39:23.666
01:43:35.876 : en:01:43:35.876
01:50:49.309 : en:01:50:49.309
01:55:27.754 : en:01:55:27.754
Релиз:

picpicpicpicpic
Для увеличения картинки щелкните мышкой по превью

Этот торрент недоступен для скачивания без регистрации, однако доступен по публичной magnet-ссылке (источники с публичных трекеров). Перед использованием ссылки прочтите, пожалуйста Пользовательское соглашение, а также как можно дольше оставайтесь на раздаче! Для того, чтобы скачать сам торрент-файл (который видит больше источников), а также для того, чтобы поблагодарить релизера, вам необходимо зарегистрироваться. Если регистрироваться лень - вы можете также попробовать скачать релиз по нашим партнерским ссылкам ниже. Кроме того, зарегистрированным пользователям не показывается всплывающая реклама при скачивании.

[underverse.me].t88070.torrent
Трекер: Зарегистрирован   [ 01.09.2017 16:10 ]  

Статус: проверено (by makkol at 01.09.2017 16:11)
Поблагодарили: 2 человека
Тип торрента: публичный - доступные источники с открытых трекеров: 
Размер: 26,7 GB (занимает 6,1 DVDR, для записи нужно 7 болванок DVDR/RW)
 
 
Похожие темы
Форум Тема Автор Торрент Отв. Посл. сооб.
T Зарубежное кино [DVDRip, Low-Res HDRip, и т.д.] Чужой: Завет / Alien: Covenant (Ридли Скотт / Ridley Scott) [2017 г., ужасы, фантастика, триллер, WEBRip] MVO + hardsub (иероглифы) 90ytr90
1 | 4

0 | 890

14

04.07.2017 19:18

Зарубежное кино [DVDRip, Low-Res HDRip, и т.д.] Чужой: Завет / Alien: Covenant (Ридли Скотт / Ridley Scott) [2017 г., ужасы, фантастика, триллер, BDRip-AVC] AVO (Матвеев, без цензуры) + Sub (Rus) 90ytr90
1 | 2

0 | 1069

9

14.08.2017 15:22

Зарубежное кино [DVDRip, Low-Res HDRip, и т.д.] Чужой: Завет / Alien: Covenant (Ридли Скотт / Ridley Scott) [2017 г., ужасы, фантастика, триллер, BDRip-AVC] AVO (Матвеев, без цензуры) + Original (Eng) + Sub (Rus, Eng) 90ytr90
0 | 2

0 | 1170

8

14.08.2017 15:27

Зарубежное кино [DVDRip, Low-Res HDRip, и т.д.] Чужой: Завет / Alien: Covenant (Ридли Скотт / Ridley Scott) [2017 г., ужасы, фантастика, триллер, BDRip] AVO (Матвеев, без цензуры) + Original (Eng) + Sub (Rus, Eng) 90ytr90
9 | 3

0 | 878

1

14.08.2017 15:34

Зарубежное кино [DVDRip, Low-Res HDRip, и т.д.] Чужой: Завет / Alien: Covenant (Ридли Скотт / Ridley Scott) [2017 г., ужасы, фантастика, триллер, BDRip] MVO (Paradox & Omskbird records, без цензуры) + Original (Eng) + Sub (Rus) 90ytr90
21 | 2

0 | 1202

9

14.08.2017 16:05

Зарубежное кино [DVDRip, Low-Res HDRip, и т.д.] Чужой: Завет / Alien: Covenant (Ридли Скотт / Ridley Scott) [2017 г., ужасы, фантастика, триллер, HDRip] MVO (Paradox & Omskbird records, без цензуры) 90ytr90
15 | 3

0 | 1284

12

14.08.2017 16:11

Зарубежное кино [DVDRip, Low-Res HDRip, и т.д.] Чужой: Завет / Alien: Covenant (Ридли Скотт) [2017 г., ужасы, фантастика, триллер, BDRip] Dub makkol
250 | 11

0 | 1886

32

31.08.2017 21:47

Зарубежное кино [DVDRip, Low-Res HDRip, и т.д.] Чужой: Завет / Alien: Covenant (Ридли Скотт) [2017 г., ужасы, фантастика, триллер, BDRip] Dub + Original + Sub makkol
33 | 4

0 | 1235

4

31.08.2017 21:54

Зарубежное кино [DVDRip, Low-Res HDRip, и т.д.] Чужой: Завет / Alien: Covenant (Ридли Скотт) [2017 г., ужасы, фантастика, триллер, BDRip] Dub + Sub makkol
1 | 2

0 | 3156

9

31.08.2017 22:31

T Зарубежное кино [HDDVDRip / BDRip / WEB-DL / HDTV 1080/720р] Чужой: Завет / Alien: Covenant (Ридли Скотт / Ridley Scott) [2017 г., ужасы, фантастика, триллер, WEBRip 1080p] MVO + hardsub (иероглифы) 90ytr90
13 | 3

0 | 1416

26

04.07.2017 19:22


Яндекс.Метрика powered by Sphinx


В Н И М А Н И Е
Сайт не распространяет и не хранит электронные версии произведений, а лишь бесплатно и без коммерческой выгоды (не требуя взамен платы,
SMS и т.д.) предоставляет доступ к создаваемому пользователями каталогу ссылок на торрент-файлы, которые содержат только списки хеш-сумм.
Убедительная просьба с жалобами обращаться напрямую к пользователю, разместившему торрент файл.

Вверх