Loading...
Error

(Blues Rock) Chris Rea - Road Songs For Lovers (2017) [FLAC (Image+.Cue), Lossless]

Статистика раздачи
Размер:  400 MB   |    Зарегистрирован:  8 месяцев   |    Скачан:  17 раз

Полного источника не было: 3 часа

Сидов:  0  |  0 KB/s  ]   Личеров:  0  |  0 KB/s  ]

* - сиды/пиры с внешних источников

   
 
Автор Сообщение

Бишеп Пол:Муж

08-Окт-2017 17:16

Chris Rea - Road Songs For Lovers

Жанр: Blues Rock
Год выпуска: 2017
Источник: CD
Производитель диска: BMG Records - 538290832
Аудиокодек: FLAC
Тип рипа: Image+.CUE
Битрейт аудио: lossless
Продолжительность: 00:58:28


Треклист:
01. Happy On The Road (3:48)
02. Nothing Left Behind (5:29)
03. Road Songs For Lovers (4:13)
04. Money (5:57)
05. Two Lost Souls (4:47)
06. Rock My Soul (4:08)
07. Moving On (5:10)
08. The Road Ahead (4:16)
09. Last Train (6:34)
10. Angel Of Love (4:30)
11. Breaking Point (5:54)
12. Beautiful (3:43)

Код:

Exact Audio Copy V1.1 from 23. June 2015

EAC extraction logfile from 3. October 2017, 0:55

Chris Rea / Road Songs For Lovers

Used drive  : TSSTcorpDVDWBD SH-B123L   Adapter: 0  ID: 4

Read mode               : Secure
Utilize accurate stream : Yes
Defeat audio cache      : Yes
Make use of C2 pointers : No

Read offset correction                      : 6
Overread into Lead-In and Lead-Out          : No
Fill up missing offset samples with silence : Yes
Delete leading and trailing silent blocks   : No
Null samples used in CRC calculations       : Yes
Used interface                              : Installed external ASPI interface

Used output format              : User Defined Encoder
Selected bitrate                : 768 kBit/s
Quality                         : High
Add ID3 tag                     : No
Command line compressor         : C:\Program Files (x86)\Exact Audio Copy\FLAC\FLAC.EXE
Additional command line options : -6 -V -T "ARTIST=%artist%" -T "TITLE=%title%" -T "ALBUM=%albumtitle%" -T "DATE=%year%" -T "TRACKNUMBER=%tracknr%" -T "GENRE=%genre%" -T "COMMENT=%comment%" -T "BAND=%albuminterpret%" -T "ALBUMARTIST=%albuminterpret%" -T "COMPOSER=%composer%" %haslyrics%--tag-from-file=LYRICS="%lyricsfile%"%haslyrics% -T "DISCNUMBER=%cdnumber%" -T "TOTALDISCS=%totalcds%" -T "TOTALTRACKS=%numtracks%" %hascover%--picture="%coverfile%"%hascover% %source% -o %dest%

TOC of the extracted CD

     Track |   Start  |  Length  | Start sector | End sector
    ---------------------------------------------------------
        1  |  0:00.00 |  3:47.50 |         0    |    17074   
        2  |  3:47.50 |  5:29.04 |     17075    |    41753   
        3  |  9:16.54 |  4:13.14 |     41754    |    60742   
        4  | 13:29.68 |  5:57.06 |     60743    |    87523   
        5  | 19:26.74 |  4:46.51 |     87524    |   109024   
        6  | 24:13.50 |  4:07.54 |    109025    |   127603   
        7  | 28:21.29 |  5:10.24 |    127604    |   150877   
        8  | 33:31.53 |  4:16.30 |    150878    |   170107   
        9  | 37:48.08 |  6:33.48 |    170108    |   199630   
       10  | 44:21.56 |  4:29.65 |    199631    |   219870   
       11  | 48:51.46 |  5:53.74 |    219871    |   246419   
       12  | 54:45.45 |  3:42.41 |    246420    |   263110   

Range status and errors

Selected range

     Filename E:\MUSIC\Chris Rea - Road Songs For Lovers.wav

     Peak level 100.0 %
     Extraction speed 3.3 X
     Range quality 100.0 %
     Test CRC A8F94F5F
     Copy CRC A8F94F5F
     Copy OK

No errors occurred

 
AccurateRip summary
 
Track  1  not present in database
Track  2  not present in database
Track  3  not present in database
Track  4  not present in database
Track  5  not present in database
Track  6  not present in database
Track  7  not present in database
Track  8  not present in database
Track  9  not present in database
Track 10  not present in database
Track 11  not present in database
Track 12  not present in database
 
None of the tracks are present in the AccurateRip database

End of status report

==== Log checksum 02108F52F2CAB7CEF75A5655469B0CB7EF7CDDFB5BC1CD8D2E8893FD2FD61091 ====

Код:

REM GENRE Rock
REM DATE 2017
REM DISCID 9C0DB40C
REM COMMENT "ExactAudioCopy v1.1"
PERFORMER "Chris Rea"
TITLE "Road Songs For Lovers"
FILE "Chris Rea - Road Songs For Lovers.flac" WAVE
  TRACK 01 AUDIO
    TITLE "Happy On The Road"
    PERFORMER "Chris Rea"
    INDEX 01 00:00:00
  TRACK 02 AUDIO
    TITLE "Nothing Left Behind"
    PERFORMER "Chris Rea"
    INDEX 01 03:47:50
  TRACK 03 AUDIO
    TITLE "Road Songs For Lovers"
    PERFORMER "Chris Rea"
    INDEX 01 09:16:54
  TRACK 04 AUDIO
    TITLE "Money"
    PERFORMER "Chris Rea"
    INDEX 01 13:29:68
  TRACK 05 AUDIO
    TITLE "Two Lost Souls"
    PERFORMER "Chris Rea"
    INDEX 01 19:26:74
  TRACK 06 AUDIO
    TITLE "Rock My Soul"
    PERFORMER "Chris Rea"
    INDEX 01 24:13:50
  TRACK 07 AUDIO
    TITLE "Moving On"
    PERFORMER "Chris Rea"
    INDEX 01 28:21:29
  TRACK 08 AUDIO
    TITLE "The Road Ahead"
    PERFORMER "Chris Rea"
    INDEX 01 33:31:53
  TRACK 09 AUDIO
    TITLE "Last Train"
    PERFORMER "Chris Rea"
    INDEX 01 37:48:08
  TRACK 10 AUDIO
    TITLE "Angel Of Love"
    PERFORMER "Chris Rea"
    INDEX 01 44:21:56
  TRACK 11 AUDIO
    TITLE "Breaking Point"
    PERFORMER "Chris Rea"
    INDEX 01 48:51:46
  TRACK 12 AUDIO
    TITLE "Beautiful"
    PERFORMER "Chris Rea"
    INDEX 01 54:45:45

Код:

-----------------------

DON'T MODIFY THIS FILE

-----------------------

PERFORMER: auCDtect Task Manager, ver. 1.6.0 RC1 build 1.6.0.1
Copyright (c) 2008-2010 y-soft. All rights reserved
http://y-soft.org

ANALYZER: auCDtect: CD records authenticity detector, version 0.8.2
Copyright (c) 2004 Oleg Berngardt. All rights reserved.
Copyright (c) 2004 Alexander Djourik. All rights reserved.

FILE: Chris Rea - Road Songs For Lovers.flac
  Size: 383390751 Hash: 451015A9A4B56A16F472EFF4811BB72E Accuracy: -m0
  Conclusion: CDDA 100%
  Signature: F0BB59466A3856A6D02E705FB8BE026B66135BC7

Этот торрент недоступен для скачивания без регистрации, однако доступен по публичной magnet-ссылке (источники с публичных трекеров). Перед использованием ссылки прочтите, пожалуйста Пользовательское соглашение, а также как можно дольше оставайтесь на раздаче! Для того, чтобы скачать сам торрент-файл (который видит больше источников), а также для того, чтобы поблагодарить релизера, вам необходимо зарегистрироваться. Если регистрироваться лень - вы можете также попробовать скачать релиз по нашим партнерским ссылкам ниже. Кроме того, зарегистрированным пользователям не показывается всплывающая реклама при скачивании.

[underverse.me].t89745.torrent
Трекер: Зарегистрирован   [ 08.10.2017 17:16 ]  

Статус: проверено (by Бишеп at 08.10.2017 17:16)
Поблагодарили: 3 человека
Тип торрента: публичный - доступные источники с открытых трекеров: 
Размер: 400 MB (занимает 0,09 DVDR, для записи нужно 1 болванка DVDR/RW)
 
 
Похожие темы
Форум Тема Автор Торрент Отв. Посл. сооб.
Blues (Blues Rock) The Charlie Smith Blues Band - Steppin' Down Blues Lane (2012) [MP3, 320 kbps] Jimmy
1 | 0

0 | 1688

7

22.10.2012 13:29

Blues (Blues Rock) Straightup Blues Band - Ain't Got A Clue (2012) [MP3, 320 kbps] NiiggazCPT
1 | 0

0 | 1585

7

04.12.2012 17:39

Blues (Blues Rock) Billy Walton Band - Soul Of A Man (2018) [MP3, 320 kbps CBR] Darkferse
0 | 0

0 | 460

9

19.01.2018 08:56

Blues (Blues Rock) Foxtrot And The Get Down - Roots Too Deep (2017) [MP3, 320 kbps CBR] Darkferse
1 | 0

0 | 985

11

24.02.2017 09:57

Blues (Blues Rock) Tedeschi Trucks Band - Live From The Fox Oakland (2CD) (2017) [MP3, 320 kbps CBR] Darkferse
1 | 0

0 | 847

6

16.03.2017 22:59

Blues (Blues Rock) Robert Walker & the Century Band - Year of the Dog (2017) [MP3, 320 kbps CBR] Darkferse
2 | 0

0 | 700

9

30.03.2017 21:28

Blues (Blues Rock, Indie Rock) The Jibs - The Jibs (EP) (2017) [MP3, 320 kbps CBR] Darkferse
1 | 0

0 | 436

4

06.04.2017 14:02

Blues (Blues Rock) Beggars Blue - New Boots (2017) [MP3, 320 kbps CBR] Darkferse
1 | 0

0 | 814

3

06.04.2017 20:43

Blues (Blues Rock, Delta Blues) Little Hook - Little Hook (2017) [MP3, 320 kbps CBR] Darkferse
1 | 0

0 | 687

4

06.04.2017 20:49

Blues (Blues Rock) The Red Earth Blues Band - The Red Earth Blues Band (2017) [MP3, 320 kbps CBR] Darkferse
1 | 0

0 | 840

4

06.04.2017 20:54


Яндекс.Метрика powered by Sphinx


В Н И М А Н И Е
Сайт не распространяет и не хранит электронные версии произведений, а лишь бесплатно и без коммерческой выгоды (не требуя взамен платы,
SMS и т.д.) предоставляет доступ к создаваемому пользователями каталогу ссылок на торрент-файлы, которые содержат только списки хеш-сумм.
Убедительная просьба с жалобами обращаться напрямую к пользователю, разместившему торрент файл.

Вверх