Loading...
Error

Трансформеры: Последний рыцарь / Transformers: The Last Knight (Майкл Бэй) [2017 г., боевик, фантастика, BD-Remux] Dub + Original + Sub

Статистика раздачи
Размер:  35,25 GB   |    Зарегистрирован:  8 месяцев   |    Скачан:  15 раз

Полного источника не было: 21 день

Сидов:  0  |  0 KB/s  ]   Личеров:  0  |  0 KB/s  ]

* - сиды/пиры с внешних источников

   
 
Автор Сообщение

makkol Пол:Муж

19-Окт-2017 15:45

Трансформеры: Последний рыцарь / Transformers: The Last Knight
«Спасется лишь один из миров»


Год выпуска: 2017
Жанр: боевик, фантастика
Производство: США [Di Bonaventura Pictures, Hasbro Inc., Huahua Film & Media Culture, Ian Bryce Productions, Paramount Pictures, Tom DeSanto/Don Murphy Production]
Режиссер: Майкл Бэй
В ролях: Марк Уолберг, Энтони Хопкинс, Лора Хэддок, Изабела Монер, Джош Дюамель, Джон Гудмен, Стэнли Туччи, Джон Туртурро, Жан Дюжарден, Кен Ватанабе, Гил Бирмингем, Сантьяго Кабрера, Джон Ди Маджио, Питер Каллен, Митч Пиледжи, Стивен Хоган
Сюжет фильма:
Оптимус Прайм исчез. Люди ведут войну с Трансформерами. Ключ к нашему будущему погребен в тайнах прошлого, в скрытой истории Трансформеров на Земле… Миссия по спасению мира ложится на плечи разношерстной компании, состоящей из Кейда Йегера, Бамблби, английского лорда и профессора из Оксфорда. Пришла пора действовать! Жертвы станут героями. Герои станут злодеями. Выстоит только один мир: их или наш.

  • Мировая премьера: 21 июня 2017
  • Российская премьера: 22 июня 2017


Качество видео: BD-Remux

Продолжительность: 02:34:39
Формат: MKV
Видео: MPEG-4 AVC, 1920x1080 (16:9), 23.976 fps, 27.6 Mbps
Аудио #1: русский, дублированный (лицензия BD EUR), AC3 5.1, 48 kHz, 640 kbps
Аудио #2: английский, оригинал, TrueHD 7.1, 48 kHz, 4298 kbps
Субтитры: русские (форсированные и полные), английские вшитые отключаемые

Код:

Format : Matroska
Format version : Version 4 / Version 2
File size : 35.2 GiB
Duration : 2 h 34 min
Overall bit rate mode : Variable
Overall bit rate : 32.6 Mb/s
Encoded date : UTC 2017-10-19 12:11:34
Writing application : mkvmerge v16.0.0 ('Protest') 64-bit
Writing library : libebml v1.3.5 + libmatroska v1.4.8

Video
ID : 1
Format : AVC
Format/Info : Advanced Video Codec
Format profile : High@L4.1
Format settings : CABAC / 4 Ref Frames
Format settings, CABAC : Yes
Format settings, RefFrames : 4 frames
Codec ID : V_MPEG4/ISO/AVC
Duration : 2 h 34 min
Bit rate mode : Variable
Bit rate : 27.6 Mb/s
Maximum bit rate : 31.0 Mb/s
Width : 1 920 pixels
Height : 1 080 pixels
Display aspect ratio : 16:9
Frame rate mode : Constant
Frame rate : 23.976 (24000/1001) FPS
Color space : YUV
Chroma subsampling : 4:2:0
Bit depth : 8 bits
Scan type : Progressive
Bits/(Pixel*Frame) : 0.556
Stream size : 29.8 GiB (85%)
Language : English
Default : Yes
Forced : No

Audio #1
ID : 2
Format : AC-3
Format/Info : Audio Coding 3
Format settings, Endianness : Big
Codec ID : A_AC3
Duration : 2 h 34 min
Bit rate mode : Constant
Bit rate : 640 kb/s
Channel(s) : 6 channels
Channel positions : Front: L C R, Side: L R, LFE
Sampling rate : 48.0 kHz
Frame rate : 31.250 FPS (1536 SPF)
Bit depth : 16 bits
Compression mode : Lossy
Stream size : 708 MiB (2%)
Title : Dub [License]
Language : Russian
Service kind : Complete Main
Default : Yes
Forced : No

Audio #2
ID : 3
Format : TrueHD
Format profile : TrueHD+Atmos / TrueHD
Codec ID : A_TRUEHD
Duration : 2 h 34 min
Bit rate mode : Variable
Bit rate : 4 298 kb/s
Maximum bit rate : 6 528 kb/s
Channel(s) : Object Based / 8 channels
Channel positions : Object Based / Front: L C R, Side: L R, Back: L R, LFE
Sampling rate : / 48.0 kHz
Frame rate : 1 200.000 FPS (40 SPF)
Compression mode : Lossless
Stream size : 4.64 GiB (13%)
Title : Original
Language : English
Default : No
Forced : No

Text #1
ID : 4
Format : UTF-8
Codec ID : S_TEXT/UTF8
Codec ID/Info : UTF-8 Plain Text
Duration : 2 h 33 min
Bit rate : 1 b/s
Count of elements : 34
Stream size : 1.29 KiB (0%)
Title : Forced
Language : Russian
Default : Yes
Forced : No

Text #2
ID : 5
Format : UTF-8
Codec ID : S_TEXT/UTF8
Codec ID/Info : UTF-8 Plain Text
Duration : 2 h 33 min
Bit rate : 96 b/s
Count of elements : 2321
Stream size : 109 KiB (0%)
Title : Full
Language : Russian
Default : No
Forced : No

Text #3
ID : 6
Format : UTF-8
Codec ID : S_TEXT/UTF8
Codec ID/Info : UTF-8 Plain Text
Duration : 2 h 25 min
Bit rate : 73 b/s
Count of elements : 2617
Stream size : 78.3 KiB (0%)
Title : SDH
Language : English
Default : No
Forced : No

Menu
00:00:00.000 : en:00:00:00.000
00:06:36.104 : en:00:06:36.104
00:14:03.468 : en:00:14:03.468
00:21:45.763 : en:00:21:45.763
00:27:53.255 : en:00:27:53.255
00:33:53.907 : en:00:33:53.907
00:40:08.906 : en:00:40:08.906
00:46:58.941 : en:00:46:58.941
00:53:25.786 : en:00:53:25.786
01:02:02.928 : en:01:02:02.928
01:08:47.081 : en:01:08:47.081
01:14:37.223 : en:01:14:37.223
01:20:10.180 : en:01:20:10.180
01:29:13.390 : en:01:29:13.390
01:37:59.499 : en:01:37:59.499
01:44:57.583 : en:01:44:57.583
01:51:15.502 : en:01:51:15.502
01:57:59.447 : en:01:57:59.447
02:06:09.729 : en:02:06:09.729
02:10:54.096 : en:02:10:54.096
02:16:01.153 : en:02:16:01.153
02:21:42.619 : en:02:21:42.619
02:25:17.292 : en:02:25:17.292
Релиз:

picpicpicpicpic
Для увеличения картинки щелкните мышкой по превью

Этот торрент недоступен для скачивания без регистрации, однако доступен по публичной magnet-ссылке (источники с публичных трекеров). Перед использованием ссылки прочтите, пожалуйста Пользовательское соглашение, а также как можно дольше оставайтесь на раздаче! Для того, чтобы скачать сам торрент-файл (который видит больше источников), а также для того, чтобы поблагодарить релизера, вам необходимо зарегистрироваться. Если регистрироваться лень - вы можете также попробовать скачать релиз по нашим партнерским ссылкам ниже. Кроме того, зарегистрированным пользователям не показывается всплывающая реклама при скачивании.

[underverse.me].t90234.torrent
Трекер: Зарегистрирован   [ 19.10.2017 15:45 ]  

Статус: проверено (by makkol at 19.10.2017 15:46)
Поблагодарили: 1 человек
Тип торрента: публичный - доступные источники с открытых трекеров: 
Размер: 35,25 GB (занимает 8,05 DVDR, для записи нужно 9 болванок DVDR/RW)
 
 
Похожие темы
Форум Тема Автор Торрент Отв. Посл. сооб.
Зарубежное кино [DVDRip, Low-Res HDRip, и т.д.] Трансформеры: Эпоха истребления / Transformers: Age of Extinction (Майкл Бэй / Michael Bay) [2014 г., фантастика, боевик, приключения, HDRip] Dub + Sub (Rus) 90ytr90
29 | 0

0 | 1051

22

17.11.2014 18:31

Зарубежное кино [DVDRip, Low-Res HDRip, и т.д.] Трансформеры: Эпоха истребления / Transformers: Age of Extinction (Майкл Бэй / Michael Bay) [2014 г., фантастика, боевик, приключения, HDRip] [IMAX] Dub 90ytr90
41 | 0

0 | 1007

14

17.11.2014 18:46

Зарубежное кино [DVDRip, Low-Res HDRip, и т.д.] Трансформеры: Эпоха истребления / Transformers: Age Of Extinction (Майкл Бэй / Michael Bay) [2014 г., фантастика, боевик, приключения, BDRip] Dub 90ytr90
1 | 0

0 | 888

3

17.11.2014 18:57

Зарубежное кино [DVDRip, Low-Res HDRip, и т.д.] Трансформеры: Эпоха истребления / Transformers: Age Of Extinction (Майкл Бэй / Michael Bay) [2014 г., фантастика, боевик, приключения, BDRip] [IMAX] Dub 90ytr90
1 | 0

0 | 839

14

17.11.2014 19:28

Зарубежное кино [DVDRip, Low-Res HDRip, и т.д.] Трансформеры: Эпоха истребления / Transformers: Age Of Extinction (Майкл Бэй / Michael Bay) [2014 г., фантастика, боевик, приключения, BDRip-AVC] Dub + Original (Eng) + Subs 90ytr90
1 | 0

0 | 737

5

21.11.2014 13:52

Зарубежное кино [DVDRip, Low-Res HDRip, и т.д.] Трансформеры: Эпоха истребления / Transformers: Age Of Extinction (Майкл Бэй / Michael Bay) [2014 г., фантастика, боевик, приключения, BDRip-AVC] [IMAX] Dub + Original (Eng) + Subs 90ytr90
0 | 0

0 | 823

24

21.11.2014 15:30

Зарубежное кино [DVDRip, Low-Res HDRip, и т.д.] Трансформеры: Последний рыцарь / Transformers: The Last Knight (Майкл Бэй) [2017 г., боевик, фантастика, BDRip-AVC] Dub + Sub makkol
26 | 1

0 | 536

19

19.10.2017 15:05

Зарубежное кино [DVDRip, Low-Res HDRip, и т.д.] Трансформеры: Последний рыцарь / Transformers: The Last Knight (Майкл Бэй) [2017 г., боевик, фантастика, BDRip] Dub makkol
55 | 10

0 | 619

10

19.10.2017 15:13

Зарубежное кино [DVDRip, Low-Res HDRip, и т.д.] Трансформеры: Последний рыцарь / Transformers: The Last Knight (Майкл Бэй) [2017 г., боевик, фантастика, BDRip-AVC] Dub + Sub makkol
0 | 2

0 | 549

8

19.10.2017 15:52

Зарубежное кино [DVDRip, Low-Res HDRip, и т.д.] Трансформеры 5: Последний рыцарь / Transformers: The Last Knight (Майкл Бэй / Michael Bay) [2017 г., фантастика, боевик, триллер, приключения, BDRip] Dub + hardsub (Rus) 90ytr90
110 | 2

0 | 753

9

12.03.2018 17:26


Яндекс.Метрика powered by Sphinx


В Н И М А Н И Е
Сайт не распространяет и не хранит электронные версии произведений, а лишь бесплатно и без коммерческой выгоды (не требуя взамен платы,
SMS и т.д.) предоставляет доступ к создаваемому пользователями каталогу ссылок на торрент-файлы, которые содержат только списки хеш-сумм.
Убедительная просьба с жалобами обращаться напрямую к пользователю, разместившему торрент файл.

Вверх