Loading...
Error

(Pop) Любэ - Все Хиты (2002), FLAC, 896 kbps

 
Автор Сообщение

[-Owlet-] Пол:Муж

22-Фев-2009 00:06

Любэ - Все Хиты
Жанр: Pop
Год выпуска: 2002
Производитель диска: Россия
Аудио кодек: FLAC
Тип рипа: image+.cue
Битрейт аудио: 896 kbps
Продолжительность: 1:14:05


Трэклист:

01. Любэ - ты неси меня река
02. Любэ - Старые друзья
03. Любэ - Скворцы
04. Любэ - Позови меня тихо по имени
05. Любэ - Дорога
06. Любэ - Полустаночки
07. Любэ - Ветер-Ветерок
08. Любэ - Атас
09. Любэ - Прорвемся опера
10. Любэ - Песня о друге
11. Любэ - Солдат
12. Любэ - Песня о звездах
13. Любэ - На воле
14. Любэ - Главное, что есть ты у меня
15. Любэ - Младшая сестренка
16. Любэ - Давай-наяривай
17. Любэ - Клетки
18. Любэ - Станция Таганская
19. Любэ - Не валяй дурака, Америка
Exact Audio Copy V0.99 prebeta 4 from 23. January 2008

EAC extraction logfile from 17. January 2009, 1:47

Любэ / Все хиты

Used drive : _NEC DVD_RW ND-3540A Adapter: 1 ID: 0

Read mode : Secure
Utilize accurate stream : Yes
Defeat audio cache : Yes
Make use of C2 pointers : No

Read offset correction : 48
Overread into Lead-In and Lead-Out : No
Fill up missing offset samples with silence : Yes
Delete leading and trailing silent blocks : No
Null samples used in CRC calculations : Yes
Used interface : Native Win32 interface for Win NT & 2000

Used output format : User Defined Encoder
Selected bitrate : 128 kBit/s
Quality : High
Add ID3 tag : No
Command line compressor : C:\Program Files\flac\bin\flac.exe
Additional command line options : -8 -V -T "ARTIST=%a" -T "TITLE=%t" -T "ALBUM=%g" -T "DATE=%y" -T "TRACKNUMBER=%n" -T "GENRE=%m" -T "COMMENT=EAC FLAC -8" %s

TOC of the extracted CD

Track | Start | Length | Start sector | End sector
---------------------------------------------------------
1 | 0:00.01 | 3:38.70 | 1 | 16420
2 | 3:38.71 | 3:50.67 | 16421 | 33737
3 | 7:29.63 | 4:41.49 | 33738 | 54861
4 | 12:11.37 | 2:42.07 | 54862 | 67018
5 | 14:53.44 | 4:56.37 | 67019 | 89255
6 | 19:50.06 | 3:26.53 | 89256 | 104758
7 | 23:16.59 | 3:22.41 | 104759 | 119949
8 | 26:39.25 | 3:11.59 | 119950 | 134333
9 | 29:51.09 | 4:01.14 | 134334 | 152422
10 | 33:52.23 | 3:02.43 | 152423 | 166115
11 | 36:54.66 | 5:06.34 | 166116 | 189099
12 | 42:01.25 | 3:06.32 | 189100 | 203081
13 | 45:07.57 | 6:00.03 | 203082 | 230084
14 | 51:07.60 | 3:45.32 | 230085 | 246991
15 | 54:53.17 | 4:03.65 | 246992 | 265281
16 | 58:57.07 | 5:27.12 | 265282 | 289818
17 | 64:24.19 | 2:39.02 | 289819 | 301745
18 | 67:03.21 | 3:28.70 | 301746 | 317415
19 | 70:32.16 | 3:32.74 | 317416 | 333389

Range status and errors

Selected range

Filename C:\Documents and Settings\DSergeev\Рабочий стол\Любэ - Все хиты.wav

Peak level 100.0 %
Range quality 99.9 %
Test CRC 47C46360
Copy CRC 47C46360
Copy OK

No errors occurred

End of status report
Download Для того, чтобы скачать этот торрент, необходимо залогиниться! Если у Вас нет логина на нашем трекере - зарегистрируйтесь, и он у Вас будет.

Как качать с торрент трекера  ·   Что такое torrent (торрент)  ·   Рейтинг и ограничения

 
Похожие темы
Форум Тема Автор Торрент Отв. Посл. сооб.
Отечественная Поп Музыка (Lossless) (Pop) Любэ - Лучшие Песни 1989 - 2015 (3CD) (2015) [FLAC (Tracks+.CUE), Lossless] Бишеп
0 | 0

0 | 2027

38

13.03.2015 08:20

Архив (популярная музыка) (Pop) Любэ - Дискография [20 альбомов] (1989-2010) [MP3, VBR 320 kbps] Алексей 25
0 | 0

3 | 1494

0

16.06.2011 08:09

Архив (HQ популярная музыка) (Pop) Любэ - Официальная дискография (1991-2005) [FLAC (Tracks+.CUE), lossless] garry
0 | 0

2 | 2659

2

23.06.2017 13:05

bepson Пол:Муж

12-Фев-2011 13:50

:big_thanks:http://underverse.in/viewtopic.php?t=93#http://unde...wtopic.php?t=93#

05-Ноя-2011 14:45

Топик был перенесен из форума Отечественная Поп Музыка (Lossless) в форум Архив


[cron robot]
 

Яндекс.Метрика powered by Sphinx


В Н И М А Н И Е
Сайт не распространяет и не хранит электронные версии произведений, а лишь бесплатно и без коммерческой выгоды (не требуя взамен платы,
SMS и т.д.) предоставляет доступ к создаваемому пользователями каталогу ссылок на торрент-файлы, которые содержат только списки хеш-сумм.
Убедительная просьба с жалобами обращаться напрямую к пользователю, разместившему торрент файл.

Вверх