Loading...
Error

(Blues Rock) Left Lane Cruiser - Claw Machine Wizard (2017) [FLAC (Tracks+.Cue), Lossless]

Статистика раздачи
Размер:  345 MB   |    Зарегистрирован:  4 месяца 12 дней   |    Скачан:  8 раз

Полного источника не было: 27 дней

Сидов:  0  |  0 KB/s  ]   Личеров:  0  |  0 KB/s  ]

* - сиды/пиры с внешних источников

   
 
Автор Сообщение

Бишеп Пол:Муж

09-Фев-2018 13:11

Left Lane Cruiser - Claw Machine Wizard

Жанр: Blues Rock
Год выпуска: 2017
Источник: CD
Производитель диска: Alive Records - 0189-2
Аудиокодек: FLAC
Тип рипа: Tracks+.CUE
Битрейт аудио: lossless
Продолжительность: 00:38:07


Треклист:
01. Claw Machine Wizard
02. The Point Is Overflowing
03. Booga Chaka
04. Lay Down
05. Burn Em Brew
06. Still Rollin
07. Lately
08. High Maintenance
09. Smoke Break
10. Indigenous
11. Liquor Store

Код:

Exact Audio Copy V1.0 beta 3 from 29. August 2011

EAC extraction logfile from 8. June 2017, 16:10

Left Lane Cruiser / Claw Machine Wizard

Used drive  : ASUS    DRW-24F1ST   a   Adapter: 0  ID: 0

Read mode               : Secure
Utilize accurate stream : Yes
Defeat audio cache      : Yes
Make use of C2 pointers : No

Read offset correction                      : 6
Overread into Lead-In and Lead-Out          : No
Fill up missing offset samples with silence : Yes
Delete leading and trailing silent blocks   : No
Null samples used in CRC calculations       : Yes
Used interface                              : Native Win32 interface for Win NT & 2000
Gap handling                                : Appended to previous track

Used output format              : User Defined Encoder
Selected bitrate                : 128 kBit/s
Quality                         : High
Add ID3 tag                     : No
Command line compressor         : C:\Program Files (x86)\Exact Audio Copy\FLAC\FLAC.EXE
Additional command line options : -8 -V -T "ARTIST=%artist%" -T "TITLE=%title%" -T "ALBUM=%albumtitle%" -T "DATE=%year%" -T "TRACKNUMBER=%tracknr%" -T "TOTALTRACKS=%numtracks%" -T "GENRE=%genre%" -T "ALBUMARTIST=%albumartist%" -T "ALBUM ARTIST=%albumartist%" -T "COMMENT=EAC Secure Mode, Test & Copy, AccurateRip, FLAC -8" %source%

TOC of the extracted CD

     Track |   Start  |  Length  | Start sector | End sector
    ---------------------------------------------------------
        1  |  0:00.00 |  3:16.46 |         0    |    14745   
        2  |  3:16.46 |  3:20.03 |     14746    |    29748   
        3  |  6:36.49 |  3:43.28 |     29749    |    46501   
        4  | 10:20.02 |  4:31.27 |     46502    |    66853   
        5  | 14:51.29 |  3:54.62 |     66854    |    84465   
        6  | 18:46.16 |  3:30.68 |     84466    |   100283   
        7  | 22:17.09 |  3:09.02 |    100284    |   114460   
        8  | 25:26.11 |  4:18.44 |    114461    |   133854   
        9  | 29:44.55 |  2:15.51 |    133855    |   144030   
       10  | 32:00.31 |  6:07.31 |    144031    |   171586   
       11  | 38:07.62 |  4:40.34 |    171587    |   192620   

Track  1

     Filename K:\EAC\01 - Claw Machine Wizard.wav

     Pre-gap length  0:00:02.00

     Peak level 96.6 %
     Extraction speed 4.0 X
     Track quality 100.0 %
     Test CRC 1247BFCC
     Copy CRC 1247BFCC
     Track not present in AccurateRip database
     Copy OK

Track  2

     Filename K:\EAC\02 - The Point Is Over Flowing.wav

     Peak level 96.6 %
     Extraction speed 4.3 X
     Track quality 100.0 %
     Test CRC 2C8DFF20
     Copy CRC 2C8DFF20
     Track not present in AccurateRip database
     Copy OK

Track  3

     Filename K:\EAC\03 - Booga Chaka.wav

     Peak level 96.6 %
     Extraction speed 4.8 X
     Track quality 100.0 %
     Test CRC 13E145A2
     Copy CRC 13E145A2
     Track not present in AccurateRip database
     Copy OK

Track  4

     Filename K:\EAC\04 - Lay Down.wav

     Peak level 96.6 %
     Extraction speed 5.4 X
     Track quality 100.0 %
     Test CRC F98E260D
     Copy CRC F98E260D
     Track not present in AccurateRip database
     Copy OK

Track  5

     Filename K:\EAC\05 - Burn Em Brew.wav

     Peak level 96.6 %
     Extraction speed 5.6 X
     Track quality 100.0 %
     Test CRC CAED650C
     Copy CRC CAED650C
     Track not present in AccurateRip database
     Copy OK

Track  6

     Filename K:\EAC\06 - Still Rollin.wav

     Peak level 96.6 %
     Extraction speed 5.8 X
     Track quality 100.0 %
     Test CRC 5A1EB5BC
     Copy CRC 5A1EB5BC
     Track not present in AccurateRip database
     Copy OK

Track  7

     Filename K:\EAC\07 - Lately.wav

     Pre-gap length  0:00:00.25

     Peak level 96.6 %
     Extraction speed 6.0 X
     Track quality 100.0 %
     Test CRC 07FCF333
     Copy CRC 07FCF333
     Track not present in AccurateRip database
     Copy OK

Track  8

     Filename K:\EAC\08 - High Maintinance.wav

     Pre-gap length  0:00:01.62

     Peak level 96.6 %
     Extraction speed 6.6 X
     Track quality 100.0 %
     Test CRC 95787620
     Copy CRC 95787620
     Track not present in AccurateRip database
     Copy OK

Track  9

     Filename K:\EAC\09 - Smoke Break.wav

     Pre-gap length  0:00:01.06

     Peak level 96.6 %
     Extraction speed 5.9 X
     Track quality 100.0 %
     Test CRC 484A02FB
     Copy CRC 484A02FB
     Track not present in AccurateRip database
     Copy OK

Track 10

     Filename K:\EAC\10 - Indigenous.wav

     Pre-gap length  0:00:01.29

     Peak level 96.6 %
     Extraction speed 7.2 X
     Track quality 100.0 %
     Test CRC 02C3A07A
     Copy CRC 02C3A07A
     Track not present in AccurateRip database
     Copy OK

Track 11

     Filename K:\EAC\11 - Liquor Store.wav

     Pre-gap length  0:00:01.42

     Peak level 96.6 %
     Extraction speed 7.3 X
     Track quality 100.0 %
     Test CRC D737ACFE
     Copy CRC D737ACFE
     Track not present in AccurateRip database
     Copy OK

None of the tracks are present in the AccurateRip database

No errors occurred

End of status report

==== Log checksum E20AD537C44D791EBCD2A17720DACA25F25ACB3DC0A2A7542813F38E3E40D896 ====

Код:

REM GENRE Rock
REM DATE 2017
REM DISCID AB0A080B
REM COMMENT "ExactAudioCopy v1.0b3"
PERFORMER "Left Lane Cruiser"
TITLE "Claw Machine Wizard"
FILE "01 - Claw Machine Wizard.wav" WAVE
  TRACK 01 AUDIO
    TITLE "Claw Machine Wizard"
    PERFORMER "Left Lane Cruiser"
    INDEX 01 00:00:00
FILE "02 - The Point Is Over Flowing.wav" WAVE
  TRACK 02 AUDIO
    TITLE "The Point Is Over Flowing"
    PERFORMER "Left Lane Cruiser"
    INDEX 01 00:00:00
FILE "03 - Booga Chaka.wav" WAVE
  TRACK 03 AUDIO
    TITLE "Booga Chaka"
    PERFORMER "Left Lane Cruiser"
    INDEX 01 00:00:00
FILE "04 - Lay Down.wav" WAVE
  TRACK 04 AUDIO
    TITLE "Lay Down"
    PERFORMER "Left Lane Cruiser"
    INDEX 01 00:00:00
FILE "05 - Burn Em Brew.wav" WAVE
  TRACK 05 AUDIO
    TITLE "Burn Em Brew"
    PERFORMER "Left Lane Cruiser"
    INDEX 01 00:00:00
FILE "06 - Still Rollin.wav" WAVE
  TRACK 06 AUDIO
    TITLE "Still Rollin"
    PERFORMER "Left Lane Cruiser"
    INDEX 01 00:00:00
  TRACK 07 AUDIO
    TITLE "Lately"
    PERFORMER "Left Lane Cruiser"
    INDEX 00 03:30:43
FILE "07 - Lately.wav" WAVE
    INDEX 01 00:00:00
  TRACK 08 AUDIO
    TITLE "High Maintinance"
    PERFORMER "Left Lane Cruiser"
    INDEX 00 03:07:15
FILE "08 - High Maintinance.wav" WAVE
    INDEX 01 00:00:00
  TRACK 09 AUDIO
    TITLE "Smoke Break"
    PERFORMER "Left Lane Cruiser"
    INDEX 00 04:17:38
FILE "09 - Smoke Break.wav" WAVE
    INDEX 01 00:00:00
  TRACK 10 AUDIO
    TITLE "Indigenous"
    PERFORMER "Left Lane Cruiser"
    INDEX 00 02:14:22
FILE "10 - Indigenous.wav" WAVE
    INDEX 01 00:00:00
  TRACK 11 AUDIO
    TITLE "Liquor Store"
    PERFORMER "Left Lane Cruiser"
    INDEX 00 06:05:64
FILE "11 - Liquor Store.wav" WAVE
    INDEX 01 00:00:00

Этот торрент недоступен для скачивания без регистрации, однако доступен по публичной magnet-ссылке (источники с публичных трекеров). Перед использованием ссылки прочтите, пожалуйста Пользовательское соглашение, а также как можно дольше оставайтесь на раздаче! Для того, чтобы скачать сам торрент-файл (который видит больше источников), а также для того, чтобы поблагодарить релизера, вам необходимо зарегистрироваться. Если регистрироваться лень - вы можете также попробовать скачать релиз по нашим партнерским ссылкам ниже. Кроме того, зарегистрированным пользователям не показывается всплывающая реклама при скачивании.

[underverse.me].t96083.torrent
Трекер: Зарегистрирован   [ 09.02.2018 13:11 ]  

Статус: проверено (by Бишеп at 09.02.2018 13:12)
Поблагодарили: пока никто не поблагодарил...
Тип торрента: публичный - доступные источники с открытых трекеров: 
Размер: 345 MB (занимает 0,08 DVDR, для записи нужно 1 болванка DVDR/RW)
 
 
Похожие темы
Форум Тема Автор Торрент Отв. Посл. сооб.
Blues (Blues Rock) The Charlie Smith Blues Band - Steppin' Down Blues Lane (2012) [MP3, 320 kbps] Jimmy
1 | 0

0 | 1688

7

22.10.2012 13:29

Blues (Blues Rock) Straightup Blues Band - Ain't Got A Clue (2012) [MP3, 320 kbps] NiiggazCPT
1 | 0

0 | 1585

7

04.12.2012 17:39

Blues (Blues Rock) Billy Walton Band - Soul Of A Man (2018) [MP3, 320 kbps CBR] Darkferse
0 | 0

0 | 460

9

19.01.2018 08:56

Blues (Blues Rock) Foxtrot And The Get Down - Roots Too Deep (2017) [MP3, 320 kbps CBR] Darkferse
1 | 0

0 | 986

11

24.02.2017 09:57

Blues (Blues Rock) Tedeschi Trucks Band - Live From The Fox Oakland (2CD) (2017) [MP3, 320 kbps CBR] Darkferse
1 | 0

0 | 847

6

16.03.2017 22:59

Blues (Blues Rock) Robert Walker & the Century Band - Year of the Dog (2017) [MP3, 320 kbps CBR] Darkferse
2 | 0

0 | 700

9

30.03.2017 21:28

Blues (Blues Rock, Indie Rock) The Jibs - The Jibs (EP) (2017) [MP3, 320 kbps CBR] Darkferse
1 | 0

0 | 436

4

06.04.2017 14:02

Blues (Blues Rock) Beggars Blue - New Boots (2017) [MP3, 320 kbps CBR] Darkferse
1 | 0

0 | 814

3

06.04.2017 20:43

Blues (Blues Rock, Delta Blues) Little Hook - Little Hook (2017) [MP3, 320 kbps CBR] Darkferse
1 | 0

0 | 687

4

06.04.2017 20:49

Blues (Blues Rock) The Red Earth Blues Band - The Red Earth Blues Band (2017) [MP3, 320 kbps CBR] Darkferse
1 | 0

0 | 840

4

06.04.2017 20:54


Яндекс.Метрика powered by Sphinx


В Н И М А Н И Е
Сайт не распространяет и не хранит электронные версии произведений, а лишь бесплатно и без коммерческой выгоды (не требуя взамен платы,
SMS и т.д.) предоставляет доступ к создаваемому пользователями каталогу ссылок на торрент-файлы, которые содержат только списки хеш-сумм.
Убедительная просьба с жалобами обращаться напрямую к пользователю, разместившему торрент файл.

Вверх