Loading...
Error

 рутой ”окер, правосудие по-техасски (¬есь сериал) / Walker, Texas Ranger / —езон: 1-9 / —ерии: 1-196 (ћайкл ѕрис, “они ћорденте) [1993-2001 г., боевик, комеди€, TVRip] DVO (ƒ“¬)

—татистика раздачи
–азмер:  78,81 GB   |    «арегистрирован:  4 мес€ца 13 дней   |    —качан:  4 раза

ѕолного источника не было: 3 мес€ца 27 дней

—идов:  0  |  0 KB/s  ]   Ћичеров:  0  |  0 KB/s  ]

* - сиды/пиры с внешних источников

   
 
јвтор —ообщение

ѕаукан ѕол:ћуж

10-‘ев-2018 23:33

 рутой ”окер, правосудие по-техасски (¬есь сериал) / Walker, Texas Ranger


√од выпуска: 1993-2001
—трана: —Ўј
∆анр: Ѕоевик,  омеди€
ѕродолжительность: ~00:45:00
ѕеревод: профессиональный двухголосый закадровый (ƒ“¬)
—убтитры: нет

–ежиссЄр: ћайкл ѕрис, “они ћорденте

¬ рол€х: „ак Ќоррис,  ларенс ƒжиллерд-мл., Ўери ƒжей ”ильсон, Ќобль ”иллингхам

ќписание: ”окер, главный герой сериала, один из последних героев «апада старого типа. ќн не только преданный друг, готовый пожертвовать ради товарища собственной жизнью, но и неумолимый враг, который сделает все возможное и невозможное, чтобы преступник предстал перед законом.

¬нимание:
в первой серии 1 сезона примерно с 46 минуты отсутствует перевод
в 14 серии 2 сезона с 35 минуты также отсутствует перевод
—езон 1
1993, эпизодов: 3
Ёпизод 1 - One Riot, One Ranger
Ёпизод 2 - Borderline
Ёпизод 3 - A Shadow in the Night

—езон 2
1993, эпизодов: 23
Ёпизод 1 - Bounty
Ёпизод 2 - Storm Warning
Ёпизод 3 - In the Name of God
Ёпизод 4 - Crime Wave Dave
Ёпизод 5 - End Run
Ёпизод 6 - Family Matters
Ёпизод 7 - She'll Do to Ride the River With
Ёпизод 8 - Unfinished Business
Ёпизод 9 - An Innocent Man
Ёпизод 10 - Night of the Gladiator
Ёпизод 11 - The Legend of Running Bear
Ёпизод 12 - Something in the Shadows: Part 1
Ёпизод 13 - Something in the Shadows: Part 2
Ёпизод 14 - On Deadly Ground
Ёпизод 15 - Right Man, Wrong Time
Ёпизод 16 - The Prodigal Son
Ёпизод 17 - The Committee
Ёпизод 18 - Deadly Vision
Ёпизод 19 - Skyjacked
Ёпизод 20 - The Long Haul
Ёпизод 21 - Rampage
Ёпизод 22 - Deadly Reunion
Ёпизод 23 - Stolen Lullaby

—езон 3
1994, эпизодов: 21
Ёпизод 1 - Badge of Honor
Ёпизод 2 - Branded
Ёпизод 3 - Silk Dreams
Ёпизод 4 - Mustangs
Ёпизод 5 - Till Death Do Us Part
Ёпизод 6 - Rainbow Warrior
Ёпизод 7 - The Road to Black Bayou
Ёпизод 8 - Line of Fire
Ёпизод 9 - Payback
Ёпизод 10 - Tiger's Eye
Ёпизод 11 - The Big Bingo Bamboozle
Ёпизод 12 - Money Train
Ёпизод 13 - Mean Streets
Ёпизод 14 - Cowboy
Ёпизод 15 - War Zone
Ёпизод 16 - Trust No One
Ёпизод 17 - Blue Movies
Ёпизод 18 - On Sacred Ground
Ёпизод 19 - Case Closed
Ёпизод 20 - Flashback
Ёпизод 21 - Standoff

—езон 4
1995, эпизодов: 26
Ёпизод 1 - Blown Apart
Ёпизод 2 - Deep Cover
Ёпизод 3 - The Guardians
Ёпизод 4 - Collision Course
Ёпизод 5 - Point After
Ёпизод 6 - Evil in the Night
Ёпизод 7 - Final Justice
Ёпизод 8 - The Lynching
Ёпизод 9 - Whitewater: Part 1
Ёпизод 10 - Whitewater: Part 2
Ёпизод 11 - The Covenant
Ёпизод 12 - Rodeo
Ёпизод 13 - Flashpoint
Ёпизод 14 - Break-In
Ёпизод 15 - The Return of LaRue
3 феврал€ 1996
Ёпизод 16 - The Juggernaut
Ёпизод 17 - El Coyote: Part 1
Ёпизод 18 - El Coyote: Part 2
Ёпизод 19 - The Avenger
Ёпизод 20 - Behind the Badge
Ёпизод 21 - Blackout
Ёпизод 22 - Deadline
Ёпизод 23 - The Siege
Ёпизод 24 - The Moscow Connection
Ёпизод 25 - Miracle at Middle Creek
Ёпизод 26 - Hall of Fame

—езон 5
1996, эпизодов: 26
Ёпизод 1 - Higher Power
Ёпизод 2 - Patriot
Ёпизод 3 - Ghost Rider
Ёпизод 4 - The Brotherhood
Ёпизод 5 - Plague
Ёпизод 6 - Redemption
Ёпизод 7 - Codename: Dragonfly
Ёпизод 8 - A Silent Cry
Ёпизод 9 - Swan Song
Ёпизод 10 - Cyclone
Ёпизод 11 - Lucky
Ёпизод 12 - The Deadliest Man Alive
Ёпизод 13 - A Ranger Christmas
Ёпизод 14 - Mayday
Ёпизод 15 - Last Hope
Ёпизод 16 - Full Contact
Ёпизод 17 - 99th Ranger
Ёпизод 18 - Devil's Turf
Ёпизод 19 - Days Past
Ёпизод 20 - Trial of LaRue
Ёпизод 21 - Heart of the Dragon
Ёпизод 22 - The Neighborhood
Ёпизод 23 - A Father's Image
Ёпизод 24 - Sons of Thunder
Ёпизод 25 - Texas vs. Cahill
Ёпизод 26 - Rookie

—езон 6
1997, эпизодов: 25
Ёпизод 1 - The Fighting McLains
Ёпизод 2 - Iceman
Ёпизод 3 - Lucas: Part 1
Ёпизод 4 - Lucas: Part 2
Ёпизод 5 - Forgotten People
Ёпизод 6 - Last of a Breed: Part 1
Ёпизод 7 - Last of a Breed: Part 2
Ёпизод 8 - Brainchild
Ёпизод 9 - Mr. Justice
Ёпизод 10 - Rainbow's End
Ёпизод 11 - A Woman's Place
Ёпизод 12 - Small Blessings
Ёпизод 13 - Tribe
Ёпизод 14 - Saving Grace
Ёпизод 15 - Money Talks
Ёпизод 16 - Crusader
Ёпизод 17 - In God's Hands
Ёпизод 18 - Undercover
Ёпизод 19 - Everyday Heroes
Ёпизод 20 - Warriors
Ёпизод 21 - Angel
Ёпизод 22 - The Soul of Winter
Ёпизод 23 - Circle of Life
Ёпизод 24 - Test of Faith
Ёпизод 25 - The Wedding: Part 1

—езон 7
1998, эпизодов: 23
Ёпизод 1 - The Wedding: Part 2
Ёпизод 2 - Trackdown
Ёпизод 3 - Royal Heist
Ёпизод 4 - War Cry
Ёпизод 5 - Code of the West
Ёпизод 6 - The Children of Halloween
Ёпизод 7 - Survival
Ёпизод 8 - Second Chance
Ёпизод 9 - Paradise Trail
Ёпизод 10 - Eyes of a Ranger
Ёпизод 11 - On the Border
Ёпизод 12 - Lost Boys
Ёпизод 13 - Special Witness
Ёпизод 14 - The Principal
Ёпизод 15 - Team Cherokee: Part 1
Ёпизод 16 - Team Cherokee: Part 2
Ёпизод 17 - Livegirls.now
Ёпизод 18 - No Way Out
Ёпизод 19 - Brothers in Arms
Ёпизод 20 - Mind Games
Ёпизод 21 - Power Angels
Ёпизод 22 - Jacob's Ladder
Ёпизод 23 - In Harm's Way: Part 1

—езон 8
1999, эпизодов: 25
Ёпизод 1 - In Harm's Way: Part 2
Ёпизод 2 - Countdown
Ёпизод 3 - Safe House
Ёпизод 4 - Way of the Warrior
Ёпизод 5 - Tall Cotton
Ёпизод 6 - The Lynn Sisters
Ёпизод 7 - Suspicious Minds
Ёпизод 8 - Widow Maker
Ёпизод 9 - Fight or Die
Ёпизод 10 - Rise to the Occasion
Ёпизод 11 - Full Recovery
Ёпизод 12 - A Matter of Faith
Ёпизод 13 - Vision Quest
Ёпизод 14 - A Matter of Principle
Ёпизод 15 - Thunderhawk
Ёпизод 16 - Justice Delayed
Ёпизод 17 - The Day of Cleansing: Part 2
Ёпизод 18 - Black Dragons
Ёпизод 19 - Soldiers of Hate
Ёпизод 20 - The General's Return
Ёпизод 21 - Showdown at Casa Diablo: Part 1
Ёпизод 22 - Showdown at Casa Diablo: Part 2
Ёпизод 23 - The Bachelor Party
Ёпизод 24 - Wedding Bells: Part 1
Ёпизод 25 - Wedding Bells: Part 2

—езон 9
2000, эпизодов: 24
Ёпизод 1 - Home of the Brave
Ёпизод 2 - Deadly Situation
Ёпизод 3 - White Buffalo
Ёпизод 4 - The Avenging Angel
Ёпизод 5 - Winds of Change
Ёпизод 6 - Lazarus
Ёпизод 7 - Turning Point
Ёпизод 8 - Retribution
Ёпизод 9 - Child of Hope
Ёпизод 10 - Faith
Ёпизод 11 - Golden Boy
Ёпизод 12 - Desperate Measures
Ёпизод 13 - Division Street
Ёпизод 14 - Saturday Night
Ёпизод 15 - Justice for All
Ёпизод 16 - 6 Hours
Ёпизод 17 - Medieval Crimes
Ёпизод 18 - Legends
Ёпизод 19 - Unsafe Speed
Ёпизод 20 - Without a Sound
Ёпизод 21 - Blood Diamonds
Ёпизод 22 - Reel Rangers
Ёпизод 23 - The Final Showdown: Part 1
Ёпизод 24 - The Final Showdown: Part 2
 ачество: TVRip
‘ормат: AVI
¬идео кодек: DivX
јудио кодек: MP3
¬идео: 720х528, 720х528, 720х536, 704х544, 704х528 (1.33:1), 25 fps, XviD, ~1001-1218 Kbps avg
јудио: MPEG Layer 3, 2 ch, 96.00 kbps avg, ~112-128 Kbps
1-2 сезоны:

Format : AVI
Format/Info : Audio Video Interleave
File size : 453 MiB
Duration : 45mn 1s
Overall bit rate : 1 405 Kbps
Writing application : VirtualDubMod 1.5.10.2 (build 2540/release)
Writing library : VirtualDubMod build 2540/release

Video
Format : MPEG-4 Visual
Format settings, BVOP : Yes
Format settings, QPel : No
Format settings, GMC : No warppoints
Format settings, Matrix : Default (H.263)
Muxing mode : Packed bitstream
Codec ID : DX50
Codec ID/Hint : DivX 5
Duration : 45mn 1s
Bit rate : 1 150 Kbps
Width : 720 pixels
Height : 528 pixels
Display aspect ratio : 4/3
Frame rate : 25.000 fps
Resolution : 24 bits
Colorimetry : 4:2:0
Scan type : Progressive
Bits/(Pixel*Frame) : 0.121
Stream size : 371 MiB (82%)
Writing library : DivX 6.2.5 (UTC 2006-07)

Audio #1
Format : MPEG Audio
Format version : Version 1
Format profile : Layer 3
Codec ID : 55
Codec ID/Hint : MP3
Duration : 45mn 1s
Bit rate mode : Constant
Bit rate : 128 Kbps
Channel(s) : 2 channels
Sampling rate : 48.0 KHz
Resolution : 16 bits
Stream size : 41.2 MiB (9%)
Alignment : Aligned on interleaves
Interleave, duration : 40 ms (1.00 video frame)
Interleave, preload duration : 504 ms
Writing library : LAME3.90.3

Audio #2
Format : MPEG Audio
Format version : Version 1
Format profile : Layer 3
Codec ID : 55
Codec ID/Hint : MP3
Duration : 45mn 1s
Bit rate mode : Constant
Bit rate : 112 Kbps
Channel(s) : 2 channels
Sampling rate : 44.1 KHz
Resolution : 16 bits
Stream size : 36.1 MiB (8%)
Alignment : Split accross interleaves
Interleave, duration : 40 ms (1.00 video frame)
Interleave, preload duration : 500 ms

3, 6, 7 сезон

Format : AVI
Format/Info : Audio Video Interleave
File size : 401 MiB
Duration : 45mn 14s
Overall bit rate : 1 238 Kbps

Video
Format : MPEG-4 Visual
Format settings, BVOP : Yes
Format settings, QPel : No
Format settings, GMC : No warppoints
Format settings, Matrix : Default (H.263)
Muxing mode : Packed bitstream
Codec ID : DX50
Codec ID/Hint : DivX 5
Duration : 45mn 14s
Bit rate : 1 101 Kbps
Width : 704 pixels
Height : 544 pixels
Display aspect ratio : 1.294
Frame rate : 25.000 fps
Resolution : 24 bits
Colorimetry : 4:2:0
Scan type : Progressive
Bits/(Pixel*Frame) : 0.115
Stream size : 356 MiB (89%)
Writing library : DivX 5.1.1 (Maupiti) (UTC 2003-11-19)

Audio
Format : MPEG Audio
Format version : Version 1
Format profile : Layer 3
Codec ID : 55
Codec ID/Hint : MP3
Duration : 45mn 13s
Bit rate mode : Constant
Bit rate : 128 Kbps
Channel(s) : 2 channels
Sampling rate : 48.0 KHz
Resolution : 16 bits
Stream size : 41.4 MiB (10%)
Alignment : Split accross interleaves
Interleave, duration : 40 ms (1.00 video frame)
Interleave, preload duration : 500 ms
Writing library : LAME3.92

4-ый сезон

Format : AVI
Format/Info : Audio Video Interleave
File size : 359 MiB
Duration : 44mn 8s
Overall bit rate : 1 138 Kbps

Video
Format : MPEG-4 Visual
Format settings, BVOP : Yes
Format settings, QPel : No
Format settings, GMC : No warppoints
Format settings, Matrix : Default (H.263)
Muxing mode : Packed bitstream
Codec ID : DX50
Codec ID/Hint : DivX 5
Duration : 44mn 8s
Bit rate : 1 001 Kbps
Width : 640 pixels
Height : 480 pixels
Display aspect ratio : 4/3
Frame rate : 25.000 fps
Resolution : 24 bits
Colorimetry : 4:2:0
Scan type : Progressive
Bits/(Pixel*Frame) : 0.130
Stream size : 316 MiB (88%)
Writing library : DivX 5.1.1 (Maupiti) (UTC 2003-11-19)

Audio
Format : MPEG Audio
Format version : Version 1
Format profile : Layer 3
Codec ID : 55
Codec ID/Hint : MP3
Duration : 44mn 7s
Bit rate mode : Constant
Bit rate : 128 Kbps
Channel(s) : 2 channels
Sampling rate : 44.1 KHz
Resolution : 16 bits
Stream size : 40.4 MiB (11%)
Alignment : Split accross interleaves
Interleave, duration : 40 ms (1.00 video frame)
Interleave, preload duration : 500 ms
Writing library : LAME3.92

5-ый сезон

Format : AVI
Format/Info : Audio Video Interleave
File size : 446 MiB
Duration : 42mn 21s
Overall bit rate : 1 473 Kbps
Writing application : VirtualDubMod 1.5.10.2 (build 2540/release)
Writing library : VirtualDubMod build 2540/release

Video
Format : MPEG-4 Visual
Format settings, BVOP : Yes
Format settings, QPel : No
Format settings, GMC : No warppoints
Format settings, Matrix : Default (H.263)
Muxing mode : Packed bitstream
Codec ID : DX50
Codec ID/Hint : DivX 5
Duration : 42mn 21s
Bit rate : 1 218 Kbps
Width : 720 pixels
Height : 536 pixels
Display aspect ratio : 4/3
Frame rate : 25.000 fps
Resolution : 24 bits
Colorimetry : 4:2:0
Scan type : Progressive
Bits/(Pixel*Frame) : 0.126
Stream size : 369 MiB (83%)
Writing library : DivX 6.0.0 (UTC 2005-06-15)

Audio #1
Format : MPEG Audio
Format version : Version 1
Format profile : Layer 3
Codec ID : 55
Codec ID/Hint : MP3
Duration : 42mn 20s
Bit rate mode : Constant
Bit rate : 128 Kbps
Channel(s) : 2 channels
Sampling rate : 48.0 KHz
Resolution : 16 bits
Stream size : 38.8 MiB (9%)
Alignment : Aligned on interleaves
Interleave, duration : 40 ms (1.00 video frame)
Interleave, preload duration : 504 ms

Audio #2
Format : MPEG Audio
Format version : Version 1
Format profile : Layer 3
Codec ID : 55
Codec ID/Hint : MP3
Duration : 42mn 20s
Bit rate mode : Constant
Bit rate : 112 Kbps
Channel(s) : 2 channels
Sampling rate : 44.1 KHz
Resolution : 16 bits
Stream size : 33.9 MiB (8%)
Alignment : Split accross interleaves
Interleave, duration : 40 ms (1.00 video frame)
Interleave, preload duration : 500 ms

8, 9 сезон,

Format : MPEG-4 Visual
Format settings, BVOP : Yes
Format settings, QPel : No
Format settings, GMC : No warppoints
Format settings, Matrix : Default (H.263)
Muxing mode : Packed bitstream
Codec ID : DX50
Codec ID/Hint : DivX 5
Duration : 42mn 33s
Bit rate : 1 192 Kbps
Width : 720 pixels
Height : 544 pixels
Display aspect ratio : 4/3
Frame rate : 25.000 fps
Resolution : 24 bits
Colorimetry : 4:2:0
Scan type : Progressive
Bits/(Pixel*Frame) : 0.122
Stream size : 363 MiB (91%)
Writing library : DivX 6.8.3 (UTC 2008-06-07)

Audio
Format : MPEG Audio
Format version : Version 1
Format profile : Layer 3
Codec ID : 55
Codec ID/Hint : MP3
Duration : 42mn 33s
Bit rate mode : Variable
Bit rate : 109 Kbps
Channel(s) : 2 channels
Sampling rate : 48.0 KHz
Resolution : 16 bits
Stream size : 33.3 MiB (8%)
Alignment : Aligned on interleaves
Interleave, duration : 24 ms (0.60 video frame)
Interleave, preload duration : 470 ms

Ётот торрент недоступен дл€ скачивани€ без регистрации, однако доступен по публичной magnet-ссылке (источники с публичных трекеров). ѕеред использованием ссылки прочтите, пожалуйста ѕользовательское соглашение, а также как можно дольше оставайтесь на раздаче! ƒл€ того, чтобы скачать сам торрент-файл (который видит больше источников), а также дл€ того, чтобы поблагодарить релизера, вам необходимо зарегистрироватьс€. ≈сли регистрироватьс€ лень - вы можете также попробовать скачать релиз по нашим партнерским ссылкам ниже.  роме того, зарегистрированным пользовател€м не показываетс€ всплывающа€ реклама при скачивании.

[underverse.me].t96235.torrent
“рекер: «арегистрирован   [ 10.02.2018 23:33 ]  

—татус: проверено (by ѕаукан at 10.02.2018 23:33)
ѕоблагодарили: 1 человек
“ип торрента: публичный - доступные источники с открытых трекеров: 
–азмер: 78,81 GB (занимает 18 DVDR, дл€ записи нужно 19 болванок DVDR/RW)
 
 
ѕохожие темы
‘орум “ема јвтор “оррент ќтв. ѕосл. сооб.
«арубежное кино [DVDRip, Low-Res HDRip, и т.д.]  рутой ”окер. ѕравосудие по-техасски. »спытание огнЄм / Walker, Texas Ranger. Trial by Fire („ак Ќоррис, Ёрон Ќоррис) [2005, —Ўј, боевик, HDTVRip] DVO + Original ѕаукан
3 | 0

0 | 1122

0

10.02.2018 23:24


яндекс.ћетрика powered by Sphinx


¬ Ќ » ћ ј Ќ » ≈
—айт не распростран€ет и не хранит электронные версии произведений, а лишь бесплатно и без коммерческой выгоды (не требу€ взамен платы,
SMS и т.д.) предоставл€ет доступ к создаваемому пользовател€ми каталогу ссылок на торрент-файлы, которые содержат только списки хеш-сумм.
”бедительна€ просьба с жалобами обращатьс€ напр€мую к пользователю, разместившему торрент файл.

¬верх