Loading...
Error

(Folk, World) Хелависа & Лазерсон и друзья - Новые Ботинки (2013) [FLAC (Image+.Cue), Lossless]

Статистика раздачи
Размер:  416 MB   |    Зарегистрирован:  5 месяцев 9 дней   |    Скачан:  2 раза

Полного источника не было: 2 дня 22 часа

Сидов:  0  |  0 KB/s  ]   Личеров:  0  |  0 KB/s  ]

* - сиды/пиры с внешних источников

   
 
Автор Сообщение

Бишеп Пол:Муж

12-Фев-2018 19:38

Хелависа & Лазерсон и друзья - Новые Ботинки

Жанр: Folk, World
Год выпуска: 2013
Источник: CD
Производитель диска: Not On Label (Хелависа Self-released)
Аудиокодек: FLAC
Тип рипа: Image+.CUE
Битрейт аудио: lossless
Продолжительность: 00:50:40


Треклист:
01. Sgt. Early's Dream/Rectory Reel
02. Nead na Lachan
03. An Spealadóir/Brògan Ùra
04. Cowboi-2013
05. Y Ddau Farch
06. The Brown and the Yellow Ale
07. Alasdair Mhic Cholla Ghasda
08. M'Fhearann Saidhbhi
09. Hùg Air A' Bhonaid Mhòir
10. Coisich, A Ruin
11. Lord Franklin
12. Amhrán na Leabhar

Код:

Exact Audio Copy V1.0 beta 3 from 29. August 2011

Отчёт EAC об извлечении, выполненном 17. ноября 2013, 18:36

Хелависа & Лазерсон и друзья / Новые ботинки

Дисковод: PLEXTOR DVDR   PX-890SA   Adapter: 3  ID: 1

Режим чтения                 : Достоверность
Использование точного потока : Да
Отключение кэша аудио        : Да
Использование указателей C2  : Нет

Коррекция смещения при чтении                     : 6
Способность читать области Lead-in и Lead-out     : Нет
Заполнение пропущенных сэмплов тишиной            : Да
Удаление блоков с тишиной в начале и конце        : Нет
При вычислениях CRC использовались нулевые сэмплы : Да
Интерфейс                                         : Установленный внешний ASPI-интерфейс

Выходной формат          : Пользовательский кодировщик
Выбранный битрейт        : 128 kBit/s
Качество                 : Высокий
Добавление ID3-тега      : Нет
Утилита сжатия           : C:\Program Files (x86)\Exact Audio Copy\Flac\flac.exe
Дополнительные параметры :  -V -8 %source%

TOC извлечённого CD

     Трек |   Старт  | Длительность | Начальный сектор | Конечный сектор
    ---------------------------------------------------------------------
       1  |  0:00.00 |    3:37.62   |           0      |      16336     
       2  |  3:37.62 |    3:16.33   |       16337      |      31069     
       3  |  6:54.20 |    5:22.46   |       31070      |      55265     
       4  | 12:16.66 |    2:59.64   |       55266      |      68754     
       5  | 15:16.55 |    5:17.65   |       68755      |      92594     
       6  | 20:34.45 |    3:27.40   |       92595      |     108159     
       7  | 24:02.10 |    2:22.28   |      108160      |     118837     
       8  | 26:24.38 |    4:19.56   |      118838      |     138318     
       9  | 30:44.19 |    5:15.61   |      138319      |     162004     
      10  | 36:00.05 |    4:10.28   |      162005      |     180782     
      11  | 40:10.33 |    5:03.08   |      180783      |     203515     
      12  | 45:13.41 |    5:25.22   |      203516      |     227912     

Характеристики диапазона извлечения и сообщения об ошибках

Выбранный диапазон

     Имя файла D:\2013 - Новые ботинки\Хелависа & Лазерсон и друзья - Новые ботинки.wav

     Пиковый уровень 100.0 %
     Скорость извлечения 8.1 X
     Качество диапазона 100.0 %
     CRC теста 9ADEB729
     CRC копии 9ADEB729
     Копирование... OK

Ошибок не произошло

 
AccurateRip: сводка
 
Трек  1  отсутствует в базе данных
Трек  2  отсутствует в базе данных
Трек  3  отсутствует в базе данных
Трек  4  отсутствует в базе данных
Трек  5  отсутствует в базе данных
Трек  6  отсутствует в базе данных
Трек  7  отсутствует в базе данных
Трек  8  отсутствует в базе данных
Трек  9  отсутствует в базе данных
Трек 10  отсутствует в базе данных
Трек 11  отсутствует в базе данных
Трек 12  отсутствует в базе данных
 
Ни одного трека нет в базе AccurateRip

Конец отчёта

---- CUETools DB Plugin V2.1.3

[CTDB TOCID: INGykDDG5smSf7AFuQ67vVYSx8E-] found, Submit result: already submitted
[69f1dd8c] (3/3) Accurately ripped

==== Контрольная сумма отчёта 4F3752529F5FDF02F62E5928525653BA7CA1A22700176C5C42BD85D682637CB0 ====

Код:

REM GENRE Folk
REM DATE 2013
REM DISCID A00BDE0C
REM COMMENT "ExactAudioCopy v1.0b3"
PERFORMER "Хелависа & Лазерсон и друзья"
TITLE "Новые ботинки"
FILE "Хелависа & Лазерсон и друзья - Новые ботинки.flac" WAVE
  TRACK 01 AUDIO
    TITLE "Sgt. Early's Dream/Rectory Reel"
    PERFORMER "Хелависа & Лазерсон и друзья"
    INDEX 01 00:00:00
  TRACK 02 AUDIO
    TITLE "Nead na Lachan"
    PERFORMER "Хелависа & Лазерсон и друзья"
    INDEX 00 03:35:62
    INDEX 01 03:37:62
  TRACK 03 AUDIO
    TITLE "An Spealadoir/Brogan Ura"
    PERFORMER "Хелависа & Лазерсон и друзья"
    INDEX 00 06:52:20
    INDEX 01 06:54:20
  TRACK 04 AUDIO
    TITLE "Cowboi-2013"
    PERFORMER "Хелависа & Лазерсон и друзья"
    INDEX 00 12:14:66
    INDEX 01 12:16:66
  TRACK 05 AUDIO
    TITLE "Y Ddau Farch"
    PERFORMER "Хелависа & Лазерсон и друзья"
    INDEX 00 15:14:55
    INDEX 01 15:16:55
  TRACK 06 AUDIO
    TITLE "The Brown and the Yellow Ale"
    PERFORMER "Хелависа & Лазерсон и друзья"
    INDEX 00 20:32:45
    INDEX 01 20:34:45
  TRACK 07 AUDIO
    TITLE " Alasdair Mhic Cholla Ghasda"
    PERFORMER "Хелависа & Лазерсон и друзья"
    INDEX 00 24:00:10
    INDEX 01 24:02:10
  TRACK 08 AUDIO
    TITLE "M'Fhearann Saidhbhi"
    PERFORMER "Хелависа & Лазерсон и друзья"
    INDEX 00 26:22:38
    INDEX 01 26:24:38
  TRACK 09 AUDIO
    TITLE "Hug Air A' Bhonaid Mhoir"
    PERFORMER "Хелависа & Лазерсон и друзья"
    INDEX 00 30:42:19
    INDEX 01 30:44:19
  TRACK 10 AUDIO
    TITLE "Coisich, A Ruin"
    PERFORMER "Хелависа & Лазерсон и друзья"
    INDEX 00 35:58:05
    INDEX 01 36:00:05
  TRACK 11 AUDIO
    TITLE "Lord Franklin"
    PERFORMER "Хелависа & Лазерсон и друзья"
    INDEX 00 40:08:33
    INDEX 01 40:10:33
  TRACK 12 AUDIO
    TITLE "Amhran na Leabhar"
    PERFORMER "Хелависа & Лазерсон и друзья"
    INDEX 00 45:11:41
    INDEX 01 45:13:41

Discogs

Этот торрент недоступен для скачивания без регистрации, однако доступен по публичной magnet-ссылке (источники с публичных трекеров). Перед использованием ссылки прочтите, пожалуйста Пользовательское соглашение, а также как можно дольше оставайтесь на раздаче! Для того, чтобы скачать сам торрент-файл (который видит больше источников), а также для того, чтобы поблагодарить релизера, вам необходимо зарегистрироваться. Если регистрироваться лень - вы можете также попробовать скачать релиз по нашим партнерским ссылкам ниже. Кроме того, зарегистрированным пользователям не показывается всплывающая реклама при скачивании.

[underverse.me].t96318.torrent
Трекер: Зарегистрирован   [ 12.02.2018 19:38 ]  

Статус: проверено (by Бишеп at 12.02.2018 19:38)
Поблагодарили: пока никто не поблагодарил...
Тип торрента: публичный - доступные источники с открытых трекеров: 
Размер: 416 MB (занимает 0,09 DVDR, для записи нужно 1 болванка DVDR/RW)
 
 

Яндекс.Метрика powered by Sphinx


В Н И М А Н И Е
Сайт не распространяет и не хранит электронные версии произведений, а лишь бесплатно и без коммерческой выгоды (не требуя взамен платы,
SMS и т.д.) предоставляет доступ к создаваемому пользователями каталогу ссылок на торрент-файлы, которые содержат только списки хеш-сумм.
Убедительная просьба с жалобами обращаться напрямую к пользователю, разместившему торрент файл.

Вверх