Loading...
Error

(Alternative Rock) Анимация - Распутье (2015) [FLAC (Tracks+.Cue), Lossless]

Статистика раздачи
Размер:  277 MB   |    Зарегистрирован:  5 месяцев 9 дней   |    Скачан:  1 раз

Полного источника не было: 19 дней

Сидов:  0  |  0 KB/s  ]   Личеров:  0  |  0 KB/s  ]

* - сиды/пиры с внешних источников

   
 
Автор Сообщение

Бишеп Пол:Муж

12-Фев-2018 20:12

Анимация - Распутье

Жанр: Alternative Rock
Год выпуска: 2015
Источник: CD
Производитель диска: Navigator Records - NR 1015CDp
Аудиокодек: FLAC
Тип рипа: Tracks+.CUE
Битрейт аудио: lossless
Продолжительность: 00:39:18


Треклист:
01. Март
02. Журавли
03. Игра
04. Хана
05. #непорусски
06. Герои
07. Маршрут
08. Воздух
09. Метро
10. Бег
11. Атаман

Код:

Exact Audio Copy V1.0 beta 3 from 29. August 2011

EAC extraction logfile from 13. October 2016, 16:19

Анимация / Распутье

Used drive  : ASUS    DRW-24B3ST   Adapter: 0  ID: 0

Read mode               : Secure
Utilize accurate stream : Yes
Defeat audio cache      : Yes
Make use of C2 pointers : No

Read offset correction                      : 6
Overread into Lead-In and Lead-Out          : No
Fill up missing offset samples with silence : Yes
Delete leading and trailing silent blocks   : No
Null samples used in CRC calculations       : Yes
Used interface                              : Native Win32 interface for Win NT & 2000
Gap handling                                : Appended to previous track

Used output format              : User Defined Encoder
Selected bitrate                : 768 kBit/s
Quality                         : High
Add ID3 tag                     : No
Command line compressor         : C:\Program Files (x86)\Exact Audio Copy\FLAC\FLAC.EXE
Additional command line options : -6 -V -T "ARTIST=%artist%" -T "TITLE=%title%" -T "ALBUM=%albumtitle%" -T "DATE=%year%" -T "TRACKNUMBER=%tracknr%" -T "GENRE=%genre%" -T "COMMENT=%comment%" -T "BAND=%albuminterpret%" -T "ALBUMARTIST=%albuminterpret%" -T "COMPOSER=%composer%" %haslyrics%--tag-from-file=LYRICS="%lyricsfile%"%haslyrics% -T "DISCNUMBER=%cdnumber%" -T "TOTALDISCS=%totalcds%" -T "TOTALTRACKS=%numtracks%" %hascover%--picture="%coverfile%"%hascover% %source% -o %dest%

TOC of the extracted CD

     Track |   Start  |  Length  | Start sector | End sector
    ---------------------------------------------------------
        1  |  0:00.00 |  4:15.04 |         0    |    19128   
        2  |  4:15.04 |  2:48.07 |     19129    |    31735   
        3  |  7:03.11 |  3:21.38 |     31736    |    46848   
        4  | 10:24.49 |  4:44.60 |     46849    |    68208   
        5  | 15:09.34 |  4:12.21 |     68209    |    87129   
        6  | 19:21.55 |  2:57.28 |     87130    |   100432   
        7  | 22:19.08 |  2:55.18 |    100433    |   113575   
        8  | 25:14.26 |  4:30.71 |    113576    |   133896   
        9  | 29:45.22 |  2:57.67 |    133897    |   147238   
       10  | 32:43.14 |  2:54.36 |    147239    |   160324   
       11  | 35:37.50 |  3:40.16 |    160325    |   176840   

Track  1

     Filename E:\Razdacha\01. Март.wav

     Pre-gap length  0:00:02.00

     Peak level 98.8 %
     Extraction speed 3.6 X
     Track quality 100.0 %
     Test CRC 81B83E49
     Copy CRC 81B83E49
     Track not present in AccurateRip database
     Copy OK

Track  2

     Filename E:\Razdacha\02. Журавли.wav

     Peak level 98.8 %
     Extraction speed 3.7 X
     Track quality 100.0 %
     Test CRC FE1B301F
     Copy CRC FE1B301F
     Track not present in AccurateRip database
     Copy OK

Track  3

     Filename E:\Razdacha\03. Игра.wav

     Peak level 98.8 %
     Extraction speed 3.2 X
     Track quality 99.9 %
     Test CRC 776047C0
     Copy CRC 776047C0
     Track not present in AccurateRip database
     Copy OK

Track  4

     Filename E:\Razdacha\04. Хана.wav

     Peak level 98.8 %
     Extraction speed 4.7 X
     Track quality 100.0 %
     Test CRC 595E83BF
     Copy CRC 595E83BF
     Track not present in AccurateRip database
     Copy OK

Track  5

     Filename E:\Razdacha\05. #непорусски.wav

     Peak level 98.8 %
     Extraction speed 4.9 X
     Track quality 100.0 %
     Test CRC E661EB24
     Copy CRC E661EB24
     Track not present in AccurateRip database
     Copy OK

Track  6

     Filename E:\Razdacha\06. Герои.wav

     Peak level 98.8 %
     Extraction speed 4.9 X
     Track quality 100.0 %
     Test CRC 622849CD
     Copy CRC 622849CD
     Track not present in AccurateRip database
     Copy OK

Track  7

     Filename E:\Razdacha\07. Маршрут.wav

     Peak level 98.8 %
     Extraction speed 5.1 X
     Track quality 100.0 %
     Test CRC 12DC74F5
     Copy CRC 12DC74F5
     Track not present in AccurateRip database
     Copy OK

Track  8

     Filename E:\Razdacha\08. Воздух.wav

     Peak level 98.8 %
     Extraction speed 5.6 X
     Track quality 100.0 %
     Test CRC EFB9FF58
     Copy CRC EFB9FF58
     Track not present in AccurateRip database
     Copy OK

Track  9

     Filename E:\Razdacha\09. Метро.wav

     Peak level 98.8 %
     Extraction speed 5.5 X
     Track quality 100.0 %
     Test CRC BC7D0F96
     Copy CRC BC7D0F96
     Track not present in AccurateRip database
     Copy OK

Track 10

     Filename E:\Razdacha\10. Бег.wav

     Peak level 98.8 %
     Extraction speed 5.6 X
     Track quality 100.0 %
     Test CRC CFD422EE
     Copy CRC CFD422EE
     Track not present in AccurateRip database
     Copy OK

Track 11

     Filename E:\Razdacha\11. Атаман.wav

     Peak level 98.8 %
     Extraction speed 6.0 X
     Track quality 100.0 %
     Test CRC 4FCE5D71
     Copy CRC 4FCE5D71
     Track not present in AccurateRip database
     Copy OK

None of the tracks are present in the AccurateRip database

No errors occurred

End of status report

==== Log checksum 122F79BC5B2AEF37282B4D22BD0365BCDDA07ABCB627A3DE8E0B858285292750 ====

Код:

REM GENRE Rock
REM DATE 2015
REM DISCID 9009350B
REM COMMENT "ExactAudioCopy v1.0b3"
PERFORMER "Анимация"
TITLE "Распутье"
FILE "01. Март.wav" WAVE
  TRACK 01 AUDIO
    TITLE "Март"
    PERFORMER "Анимация"
    INDEX 01 00:00:00
FILE "02. Журавли.wav" WAVE
  TRACK 02 AUDIO
    TITLE "Журавли"
    PERFORMER "Анимация"
    INDEX 01 00:00:00
FILE "03. Игра.wav" WAVE
  TRACK 03 AUDIO
    TITLE "Игра"
    PERFORMER "Анимация"
    INDEX 01 00:00:00
FILE "04. Хана.wav" WAVE
  TRACK 04 AUDIO
    TITLE "Хана"
    PERFORMER "Анимация"
    INDEX 01 00:00:00
FILE "05. #непорусски.wav" WAVE
  TRACK 05 AUDIO
    TITLE "#непорусски"
    PERFORMER "Анимация"
    INDEX 01 00:00:00
FILE "06. Герои.wav" WAVE
  TRACK 06 AUDIO
    TITLE "Герои"
    PERFORMER "Анимация"
    INDEX 01 00:00:00
FILE "07. Маршрут.wav" WAVE
  TRACK 07 AUDIO
    TITLE "Маршрут"
    PERFORMER "Анимация"
    INDEX 01 00:00:00
FILE "08. Воздух.wav" WAVE
  TRACK 08 AUDIO
    TITLE "Воздух"
    PERFORMER "Анимация"
    INDEX 01 00:00:00
FILE "09. Метро.wav" WAVE
  TRACK 09 AUDIO
    TITLE "Метро"
    PERFORMER "Анимация"
    INDEX 01 00:00:00
FILE "10. Бег.wav" WAVE
  TRACK 10 AUDIO
    TITLE "Бег"
    PERFORMER "Анимация"
    INDEX 01 00:00:00
FILE "11. Атаман.wav" WAVE
  TRACK 11 AUDIO
    TITLE "Атаман"
    PERFORMER "Анимация"
    INDEX 01 00:00:00

Этот торрент недоступен для скачивания без регистрации, однако доступен по публичной magnet-ссылке (источники с публичных трекеров). Перед использованием ссылки прочтите, пожалуйста Пользовательское соглашение, а также как можно дольше оставайтесь на раздаче! Для того, чтобы скачать сам торрент-файл (который видит больше источников), а также для того, чтобы поблагодарить релизера, вам необходимо зарегистрироваться. Если регистрироваться лень - вы можете также попробовать скачать релиз по нашим партнерским ссылкам ниже. Кроме того, зарегистрированным пользователям не показывается всплывающая реклама при скачивании.

[underverse.me].t96320.torrent
Трекер: Зарегистрирован   [ 12.02.2018 20:12 ]  

Статус: проверено (by Бишеп at 12.02.2018 20:13)
Поблагодарили: пока никто не поблагодарил...
Тип торрента: публичный - доступные источники с открытых трекеров: 
Размер: 277 MB (занимает 0,06 DVDR, для записи нужно 1 болванка DVDR/RW)
 
 
Похожие темы
Форум Тема Автор Торрент Отв. Посл. сооб.
Зарубежная Pop Музыка (Alternative Pop, Neo Soul, Indie) Amanda Jenssen - Sanger fran on (2015) [MP3, 320 kbps] 90ytr90
1 | 2

0 | 1140

3

23.03.2015 19:02

Зарубежная Pop Музыка (Alternative, Indie) Anna of the North - Lovers (2017) [MP3, 320 kbps CBR] Darkferse
5 | 0

0 | 748

4

13.09.2017 08:47

Зарубежная Pop Музыка (Alternative, Pop, Soul) Plan B - Heaven Before All Hell Breaks Loose (2018) [MP3, 320 kbps CBR] 90ytr90
15 | 0

0 | 231

3

03.06.2018 05:52

Зарубежный Hard, Progressive, Soft, Melodic, AOR, Folk, Classic Rock (Alternative Rock / Progressive Rock) Muse - The 2nd Law (2012) [MP3, 320 kbps] Jimmy
0 | 0

0 | 1356

13

27.09.2012 04:30

Зарубежный Black, Death, Heavy, Thrash, Power, Folk, Gothic Metal (Alternative Metal) This Tragic Day - This Tragic Day (2012) [MP3, 320 kbps] NiiggazCPT
1 | 0

0 | 1541

4

28.10.2012 07:21

Зарубежный Punk, Hardcore, Grunge, Alternative (Alternative) Green Day - Greatest Hits: God's Favorite Band (2017) [iTunes AAC M4A, 256 kbps VBR] Web garry
3 | 0

5 | 3863

1

04.02.2010 17:52

Зарубежный Punk, Hardcore, Grunge, Alternative (Alternative) Red Hot Chili Peppers - Greatest Hits (2003) [iTunes AAC M4A, 256 kbps VBR] Web garry
6 | 1

0 | 2134

1

02.06.2009 18:51

Зарубежный Punk, Hardcore, Grunge, Alternative (Alternative) The Killers - Discography (2004-2013) [iTunes AAC M4A, 256 kbps VBR] Web garry
11 | 3

0 | 6126

4

20.06.2009 12:07

Зарубежный Punk, Hardcore, Grunge, Alternative (Alternative, Pop-Punk, Female Vocal) We Are the In Crowd - Weird Kids [Deluxe Edition] (2014) [MP3, 320 kbps] Jimmy
3 | 0

0 | 1185

3

23.04.2014 15:58

Зарубежный Punk, Hardcore, Grunge, Alternative (Alternative, Pop Punk, Emo) Fireworks - (Oh), Common Life (2014) [MP3, 320 kbps] Jimmy
1 | 0

0 | 959

4

23.04.2014 15:55


Яндекс.Метрика powered by Sphinx


В Н И М А Н И Е
Сайт не распространяет и не хранит электронные версии произведений, а лишь бесплатно и без коммерческой выгоды (не требуя взамен платы,
SMS и т.д.) предоставляет доступ к создаваемому пользователями каталогу ссылок на торрент-файлы, которые содержат только списки хеш-сумм.
Убедительная просьба с жалобами обращаться напрямую к пользователю, разместившему торрент файл.

Вверх