Loading...
Error

(Alternative Rock) Би-2 - Би-2 & Prague Metropolitan Symphonic Orchestra VOL. 2 (2017) [FLAC (Image+.Cue), Lossless]

Статистика раздачи
Размер:  507 MB   |    Зарегистрирован:  5 месяцев 4 дня   |    Скачан:  2 раза

Полного источника не было: 4 дня

Сидов:  0  |  0 KB/s  ]   Личеров:  0  |  0 KB/s  ]

* - сиды/пиры с внешних источников

   
 
Автор Сообщение

Бишеп Пол:Муж

13-Фев-2018 06:08

Би-2 - Би-2 & Prague Metropolitan Symphonic Orchestra VOL. 2

Жанр: Alternative Rock
Год выпуска: 2017
Источник: CD
Производитель диска: Мистерия Звука - CD-M+429-2
Аудиокодек: FLAC
Тип рипа: Image+.CUE
Битрейт аудио: lossless
Продолжительность: 00:58:08


Треклист:
01. Молитва (5:35)
02. Хипстер (4:11)
03. Забрали в армию (4:59)
04. Касаясь земли (feat. Ренарс Кауперс & Найк Борзов) (4:41)
05. Блюз 16+ (4:19)
06. Компромисс (4:25)
07. Тише и тише (feat. Диана Арбенина) (4:22)
08. Три сантиметра над землёй (feat. Тина Кузнецова) (5:23)
09. Сердце (5:08)
10. Бездорожье (feat. Маша Макарова) (4:11)
11. Она (5:50)
12. Кого ты ждёшь (feat. Лена Кауфман) (5:05)

Код:

Exact Audio Copy V1.0 beta 3 from 29. August 2011

Отчёт EAC об извлечении, выполненном 29. марта 2017, 14:38

Би-2 / Би-2 & Prague Metropolitan Symphonic orchestra Vol. 2

Дисковод: PIONEER DVD-RW  DVR-218L   Adapter: 0  ID: 0

Режим чтения                 : Достоверность
Использование точного потока : Да
Отключение кэша аудио        : Да
Использование указателей C2  : Нет

Коррекция смещения при чтении                     : 6
Способность читать области Lead-in и Lead-out     : Нет
Заполнение пропущенных сэмплов тишиной            : Да
Удаление блоков с тишиной в начале и конце        : Нет
При вычислениях CRC использовались нулевые сэмплы : Да
Интерфейс                                         : Встроенный Win32-интерфейс для Win NT/2000

Выходной формат          : Пользовательский кодировщик
Выбранный битрейт        : 128 kBit/s
Качество                 : Высокий
Добавление ID3-тега      : Нет
Утилита сжатия           : C:\Program Files (x86)\Exact Audio Copy\Flac\flac.exe
Дополнительные параметры : -V -7 -T "Genre=%genre%" -T "Artist=%artist%" -T "Title=%title%" -T "Album=%albumtitle%" -T "Date=%year%" -T "Tracknumber=%tracknr%" -T "Comment=%comment%" %source%

TOC извлечённого CD

     Трек |   Старт  | Длительность | Начальный сектор | Конечный сектор
    ---------------------------------------------------------------------
       1  |  0:00.00 |    5:35.18   |           0      |      25142     
       2  |  5:35.18 |    4:10.53   |       25143      |      43945     
       3  |  9:45.71 |    4:58.67   |       43946      |      66362     
       4  | 14:44.63 |    4:41.01   |       66363      |      87438     
       5  | 19:25.64 |    4:18.52   |       87439      |     106840     
       6  | 23:44.41 |    4:24.57   |      106841      |     126697     
       7  | 28:09.23 |    4:22.09   |      126698      |     146356     
       8  | 32:31.32 |    5:23.17   |      146357      |     170598     
       9  | 37:54.49 |    5:07.40   |      170599      |     193663     
      10  | 43:02.14 |    4:10.48   |      193664      |     212461     
      11  | 47:12.62 |    5:49.42   |      212462      |     238678     
      12  | 53:02.29 |    5:05.27   |      238679      |     261580     

Характеристики диапазона извлечения и сообщения об ошибках

Выбранный диапазон

     Имя файла E:\_VIDEO\_seriaЛЫ_\!!!muz\Би-2 & Prague Metropolitan Symphonic Orchestra Vol. 2 (2017)\Би-2 & Prague Metropolitan Symphonic orchestra Vol. 2.wav

     Пиковый уровень 96.3 %
     Скорость извлечения 2.0 X
     Качество диапазона 100.0 %
     CRC теста 3B9243F5
     CRC копии 3B9243F5
     Копирование... OK

Ошибок не произошло

 
AccurateRip: сводка
 
Трек  1  отсутствует в базе данных
Трек  2  отсутствует в базе данных
Трек  3  отсутствует в базе данных
Трек  4  отсутствует в базе данных
Трек  5  отсутствует в базе данных
Трек  6  отсутствует в базе данных
Трек  7  отсутствует в базе данных
Трек  8  отсутствует в базе данных
Трек  9  отсутствует в базе данных
Трек 10  отсутствует в базе данных
Трек 11  отсутствует в базе данных
Трек 12  отсутствует в базе данных
 
Ни одного трека нет в базе AccurateRip

Конец отчёта

==== Контрольная сумма отчёта 1107BF7129570C2FF26A58AC86989CB9765FA1A12F11598515107EF65E412D7D ====

Код:

REM GENRE Rock
REM DATE 2017
REM DISCID BD0D9F0C
REM COMMENT "ExactAudioCopy v1.0b3"
PERFORMER "Би-2"
TITLE "Би-2 & Prague Metropolitan Symphonic orchestra Vol. 2"
FILE "Би-2 & Prague Metropolitan Symphonic orchestra Vol. 2.flac" WAVE
  TRACK 01 AUDIO
    TITLE "Молитва"
    PERFORMER "Би-2"
    INDEX 01 00:00:00
  TRACK 02 AUDIO
    TITLE "Хипстер"
    PERFORMER "Би-2"
    INDEX 00 05:33:18
    INDEX 01 05:35:18
  TRACK 03 AUDIO
    TITLE "Забрали в армию"
    PERFORMER "Би-2"
    INDEX 00 09:43:71
    INDEX 01 09:45:71
  TRACK 04 AUDIO
    TITLE "Касаясь земли (feat. Ренарс Кауперс & Найк Борзов)"
    PERFORMER "Би-2"
    INDEX 00 14:42:63
    INDEX 01 14:44:63
  TRACK 05 AUDIO
    TITLE "Блюз 16+"
    PERFORMER "Би-2"
    INDEX 00 19:23:64
    INDEX 01 19:25:64
  TRACK 06 AUDIO
    TITLE "Компромисс"
    PERFORMER "Би-2"
    INDEX 00 23:42:41
    INDEX 01 23:44:41
  TRACK 07 AUDIO
    TITLE "Тише и тише (feat. Диана Арбенина)"
    PERFORMER "Би-2"
    INDEX 00 28:07:23
    INDEX 01 28:09:23
  TRACK 08 AUDIO
    TITLE "Три сантиметра над землёй (feat. Тина Кузнецова)"
    PERFORMER "Би-2"
    INDEX 00 32:29:32
    INDEX 01 32:31:32
  TRACK 09 AUDIO
    TITLE "Сердце"
    PERFORMER "Би-2"
    INDEX 00 37:52:49
    INDEX 01 37:54:49
  TRACK 10 AUDIO
    TITLE "Бездорожье (feat. Маша Макарова)"
    PERFORMER "Би-2"
    INDEX 00 43:00:14
    INDEX 01 43:02:14
  TRACK 11 AUDIO
    TITLE "Она"
    PERFORMER "Би-2"
    INDEX 00 47:10:62
    INDEX 01 47:12:62
  TRACK 12 AUDIO
    TITLE "Кого ты ждёшь (feat. Лена Кауфман)"
    PERFORMER "Би-2"
    INDEX 00 53:00:29
    INDEX 01 53:02:29

Discogs

Этот торрент недоступен для скачивания без регистрации, однако доступен по публичной magnet-ссылке (источники с публичных трекеров). Перед использованием ссылки прочтите, пожалуйста Пользовательское соглашение, а также как можно дольше оставайтесь на раздаче! Для того, чтобы скачать сам торрент-файл (который видит больше источников), а также для того, чтобы поблагодарить релизера, вам необходимо зарегистрироваться. Если регистрироваться лень - вы можете также попробовать скачать релиз по нашим партнерским ссылкам ниже. Кроме того, зарегистрированным пользователям не показывается всплывающая реклама при скачивании.

[underverse.me].t96332.torrent
Трекер: Зарегистрирован   [ 13.02.2018 06:08 ]  

Статус: проверено (by Бишеп at 13.02.2018 06:09)
Поблагодарили: пока никто не поблагодарил...
Тип торрента: публичный - доступные источники с открытых трекеров: 
Размер: 507 MB (занимает 0,11 DVDR, для записи нужно 1 болванка DVDR/RW)
 
 
Похожие темы
Форум Тема Автор Торрент Отв. Посл. сооб.
Зарубежная Pop Музыка (Alternative Pop, Neo Soul, Indie) Amanda Jenssen - Sanger fran on (2015) [MP3, 320 kbps] 90ytr90
1 | 1

0 | 1137

3

23.03.2015 19:02

Зарубежная Pop Музыка (Alternative, Indie) Anna of the North - Lovers (2017) [MP3, 320 kbps CBR] Darkferse
5 | 0

0 | 744

4

13.09.2017 08:47

Зарубежная Pop Музыка (Alternative, Pop, Soul) Plan B - Heaven Before All Hell Breaks Loose (2018) [MP3, 320 kbps CBR] 90ytr90
31 | 1

0 | 225

3

03.06.2018 05:52

Зарубежный Hard, Progressive, Soft, Melodic, AOR, Folk, Classic Rock (Alternative Rock / Progressive Rock) Muse - The 2nd Law (2012) [MP3, 320 kbps] Jimmy
0 | 0

0 | 1353

13

27.09.2012 04:30

Зарубежный Black, Death, Heavy, Thrash, Power, Folk, Gothic Metal (Alternative Metal) This Tragic Day - This Tragic Day (2012) [MP3, 320 kbps] NiiggazCPT
1 | 0

0 | 1539

4

28.10.2012 07:21

Зарубежный Punk, Hardcore, Grunge, Alternative (Alternative) Green Day - Greatest Hits: God's Favorite Band (2017) [iTunes AAC M4A, 256 kbps VBR] Web garry
2 | 0

5 | 3860

1

04.02.2010 17:52

Зарубежный Punk, Hardcore, Grunge, Alternative (Alternative) Red Hot Chili Peppers - Greatest Hits (2003) [iTunes AAC M4A, 256 kbps VBR] Web garry
3 | 5

0 | 2125

1

02.06.2009 18:51

Зарубежный Punk, Hardcore, Grunge, Alternative (Alternative) The Killers - Discography (2004-2013) [iTunes AAC M4A, 256 kbps VBR] Web garry
5 | 2

0 | 6110

4

20.06.2009 12:07

Зарубежный Punk, Hardcore, Grunge, Alternative (Alternative, Pop-Punk, Female Vocal) We Are the In Crowd - Weird Kids [Deluxe Edition] (2014) [MP3, 320 kbps] Jimmy
3 | 0

0 | 1183

3

23.04.2014 15:58

Зарубежный Punk, Hardcore, Grunge, Alternative (Alternative, Pop Punk, Emo) Fireworks - (Oh), Common Life (2014) [MP3, 320 kbps] Jimmy
1 | 0

0 | 957

4

23.04.2014 15:55


Яндекс.Метрика powered by Sphinx


В Н И М А Н И Е
Сайт не распространяет и не хранит электронные версии произведений, а лишь бесплатно и без коммерческой выгоды (не требуя взамен платы,
SMS и т.д.) предоставляет доступ к создаваемому пользователями каталогу ссылок на торрент-файлы, которые содержат только списки хеш-сумм.
Убедительная просьба с жалобами обращаться напрямую к пользователю, разместившему торрент файл.

Вверх