Loading...
Error

(CardioWave, Folk Rock, Neo-Classical) Fleur - Знаки (2014) [FLAC (Tracks+.Cue), Lossless]

Статистика раздачи
Размер:  105 MB   |    Зарегистрирован:  5 месяцев 8 дней   |    Скачан:  2 раза

Полного источника не было: 15 дней

Сидов:  0  |  0 KB/s  ]   Личеров:  0  |  0 KB/s  ]

* - сиды/пиры с внешних источников

   
 
Автор Сообщение

Бишеп Пол:Муж

14-Фев-2018 07:07

Fleur - Знаки

Жанр: CardioWave, Folk Rock, Neo-Classical
Год выпуска: 2014
Источник: CD
Производитель диска: Cardiowave - CW 019
Аудиокодек: FLAC
Тип рипа: Tracks+.CUE
Битрейт аудио: lossless
Продолжительность: 00:15:22


Треклист:
01. Божья коровка
02. Утешитель
03. Возвращение

Код:

Exact Audio Copy V1.0 beta 3 from 29. August 2011

EAC extraction logfile from 27. March 2014, 14:15

Fleur / Znaki

Used drive  : ASUS    SBC-06D1S-U   Adapter: 2  ID: 0

Read mode               : Secure
Utilize accurate stream : Yes
Defeat audio cache      : Yes
Make use of C2 pointers : No

Read offset correction                      : 102
Overread into Lead-In and Lead-Out          : No
Fill up missing offset samples with silence : Yes
Delete leading and trailing silent blocks   : No
Null samples used in CRC calculations       : Yes
Used interface                              : Native Win32 interface for Win NT & 2000
Gap handling                                : Appended to previous track

Used output format              : User Defined Encoder
Selected bitrate                : 128 kBit/s
Quality                         : High
Add ID3 tag                     : No
Command line compressor         : C:\Program Files (x86)\Exact Audio Copy\Flac\flac.exe
Additional command line options : -8 -V -T "ARTIST=%artist%" -T "TITLE=%title%" -T "ALBUM=%albumtitle%" -T "DATE=%year%" -T "TRACKNUMBER=%tracknr%" -T "TOTALTRACKS=%numtracks%" -T "GENRE=%genre%" -T "ALBUMARTIST=%albumartist%" -T "ALBUM ARTIST=%albumartist%" -T "COMMENT=EAC Secure Mode, Test & Copy, AccurateRip, FLAC -8" %source%

TOC of the extracted CD

     Track |   Start  |  Length  | Start sector | End sector
    ---------------------------------------------------------
        1  |  0:00.00 |  3:12.44 |         0    |    14443   
        2  |  3:12.44 |  5:27.20 |     14444    |    38988   
        3  |  8:39.64 |  6:43.55 |     38989    |    69268   

Track  1

     Filename E:\ripping\Fleur - Znaki (2014) [FLAC] {Cardiowave CW 019}\01 - Bozh'ya korovka.wav

     Pre-gap length  0:00:02.00

     Peak level 82.8 %
     Extraction speed 1.2 X
     Track quality 100.0 %
     Test CRC 5AAF61C4
     Copy CRC 5AAF61C4
     Track not present in AccurateRip database
     Copy OK

Track  2

     Filename E:\ripping\Fleur - Znaki (2014) [FLAC] {Cardiowave CW 019}\02 - Uteshitel'.wav

     Peak level 100.0 %
     Extraction speed 0.7 X
     Track quality 99.7 %
     Test CRC 84C2FF6E
     Copy CRC 84C2FF6E
     Track not present in AccurateRip database
     Copy OK

Track  3

     Filename E:\ripping\Fleur - Znaki (2014) [FLAC] {Cardiowave CW 019}\03 - Vozvrashcheniye.wav

     Peak level 93.8 %
     Extraction speed 1.5 X
     Track quality 99.9 %
     Test CRC EE739A96
     Copy CRC EE739A96
     Track not present in AccurateRip database
     Copy OK

None of the tracks are present in the AccurateRip database

No errors occurred

End of status report

---- CUETools DB Plugin V2.1.3

[CTDB TOCID: o0_8h53T_tAiAGwIb.DnXZBLz0M-] found, Submit result: o0_8h53T_tAiAGwIb.DnXZBLz0M- has been confirmed
[4a7fbcef] (1/1) Accurately ripped

==== Log checksum 540732986D8BC7F6AB65B55E2A330A0070E56425930EB8AF37BD0C2EB2AFE942 ====

Код:

REM GENRE Cardiowave
REM DATE 2014
REM DISCID 18039B03
REM COMMENT "ExactAudioCopy v1.0b3"
PERFORMER "Flёur"
TITLE "Знаки"
FILE "01 - Божья коровка.wav" WAVE
  TRACK 01 AUDIO
    TITLE "Божья коровка"
    PERFORMER "Flёur"
    INDEX 01 00:00:00
FILE "02 - Утешитель.wav" WAVE
  TRACK 02 AUDIO
    TITLE "Утешитель"
    PERFORMER "Flёur"
    INDEX 01 00:00:00
FILE "03 - Возвращение.wav" WAVE
  TRACK 03 AUDIO
    TITLE "Возвращение"
    PERFORMER "Flёur"
    INDEX 01 00:00:00

Discogs

Этот торрент недоступен для скачивания без регистрации, однако доступен по публичной magnet-ссылке (источники с публичных трекеров). Перед использованием ссылки прочтите, пожалуйста Пользовательское соглашение, а также как можно дольше оставайтесь на раздаче! Для того, чтобы скачать сам торрент-файл (который видит больше источников), а также для того, чтобы поблагодарить релизера, вам необходимо зарегистрироваться. Если регистрироваться лень - вы можете также попробовать скачать релиз по нашим партнерским ссылкам ниже. Кроме того, зарегистрированным пользователям не показывается всплывающая реклама при скачивании.

[underverse.me].t96389.torrent
Трекер: Зарегистрирован   [ 14.02.2018 07:07 ]  

Статус: проверено (by Бишеп at 14.02.2018 07:07)
Поблагодарили: пока никто не поблагодарил...
Тип торрента: публичный - доступные источники с открытых трекеров: 
Размер: 105 MB (занимает 0,02 DVDR, для записи нужно 1 болванка DVDR/RW)
 
 
Похожие темы
Форум Тема Автор Торрент Отв. Посл. сооб.
Отечественный Punk, Grunge, Alternative (Lossless) (CardioWave, Folk Rock) Елена Войнаровская (Fleur) - Присутствие (2016) [FLAC (Tracks+.Cue), Lossless] Бишеп
10 | 0

0 | 197

2

16.02.2018 18:36

Отечественный Punk, Grunge, Alternative (Lossless) (CardioWave, Folk Rock, Modern Classical) Fleur - Волшебство (2008) [FLAC (Image+.Cue), Lossless] Бишеп
5 | 0

0 | 190

1

16.02.2018 20:05


Яндекс.Метрика powered by Sphinx


В Н И М А Н И Е
Сайт не распространяет и не хранит электронные версии произведений, а лишь бесплатно и без коммерческой выгоды (не требуя взамен платы,
SMS и т.д.) предоставляет доступ к создаваемому пользователями каталогу ссылок на торрент-файлы, которые содержат только списки хеш-сумм.
Убедительная просьба с жалобами обращаться напрямую к пользователю, разместившему торрент файл.

Вверх