Loading...
Error

(Alternative Rock, Indie Rock) Zorge - Что мы знаем о равновесии? (2013) [FLAC (Image+.Cue), Lossless]

Статистика раздачи
Размер:  337 MB   |    Зарегистрирован:  5 месяцев 3 дня   |    Скачан:  1 раз

Полного источника не было: 4 месяца 12 дней

Сидов:  0  |  0 KB/s  ]   Личеров:  0  |  0 KB/s  ]

* - сиды/пиры с внешних источников

   
 
Автор Сообщение

Бишеп Пол:Муж

14-Фев-2018 18:18

Zorge - Что мы знаем о равновесии?

Жанр: Alternative Rock, Indie Rock
Год выпуска: 2013
Источник: CD
Производитель диска: Navigator Records - NR 4013 CDp
Аудиокодек: FLAC
Тип рипа: Image+.CUE
Битрейт аудио: lossless
Продолжительность: 00:47:02


Треклист:
01. Девятый мяч (04:33)
02. Патруль (04:36)
03. Не доверять эстетике (04:48)
04. Люди ждут (04:48)
05. Ниоткуда (04:05)
06. Секрет (06:01)
07. Что утаил Ватикан? (04:21)
08. Голоса (03:41)
09. Киссинджер (04:51)
10. Маяк (05:25)

Код:

Exact Audio Copy V1.0 beta 3 from 29. August 2011

Отчёт EAC об извлечении, выполненном 7. мая 2014, 12:54

Zorge / Что мы знаем о равновесии?

Дисковод: _NEC    DVD_RW ND-3520A   Adapter: 0  ID: 1

Режим чтения                 : Достоверность
Использование точного потока : Да
Отключение кэша аудио        : Да
Использование указателей C2  : Нет

Коррекция смещения при чтении                     : 48
Способность читать области Lead-in и Lead-out     : Нет
Заполнение пропущенных сэмплов тишиной            : Да
Удаление блоков с тишиной в начале и конце        : Нет
При вычислениях CRC использовались нулевые сэмплы : Да
Интерфейс                                         : Встроенный Win32-интерфейс для Win NT/2000

Выходной формат          : Пользовательский кодировщик
Выбранный битрейт        : 896 kBit/s
Качество                 : Высокий
Добавление ID3-тега      : Нет
Утилита сжатия           : \\Dim\c\Program Files\FLAC\flac.exe
Дополнительные параметры : -V -8 -T "Date=%year%" -T "Genre=%genre%" %source%

TOC извлечённого CD

     Трек |   Старт  | Длительность | Начальный сектор | Конечный сектор
    ---------------------------------------------------------------------
       1  |  0:00.00 |    4:30.72   |           0      |      20321     
       2  |  4:30.72 |    4:35.10   |       20322      |      40956     
       3  |  9:06.07 |    4:48.11   |       40957      |      62567     
       4  | 13:54.18 |    4:47.17   |       62568      |      84109     
       5  | 18:41.35 |    4:04.58   |       84110      |     102467     
       6  | 22:46.18 |    6:00.48   |      102468      |     129515     
       7  | 28:46.66 |    4:20.36   |      129516      |     149051     
       8  | 33:07.27 |    3:40.40   |      149052      |     165591     
       9  | 36:47.67 |    4:50.20   |      165592      |     187361     
      10  | 41:38.12 |    5:24.16   |      187362      |     211677     

Характеристики диапазона извлечения и сообщения об ошибках

Выбранный диапазон

     Имя файла C:\Users\дим\Downloads\Zorge - Что мы знаем о равновесии.wav

     Пиковый уровень 99.4 %
     Скорость извлечения 5.8 X
     Качество диапазона 99.9 %
     CRC теста DA52CCAF
     CRC копии DA52CCAF
     Копирование... OK

Ошибок не произошло

 
AccurateRip: сводка
 
Трек  1  : извлечено точно (доверие 2)  [1E856D97]  (AR v2)
Трек  2  : извлечено точно (доверие 2)  [BF071E94]  (AR v2)
Трек  3  : извлечено точно (доверие 2)  [D351CE46]  (AR v2)
Трек  4  : извлечено точно (доверие 1)  [AAB2E881]  (AR v2)
Трек  5  : извлечено точно (доверие 2)  [5B7D48C2]  (AR v2)
Трек  6  : извлечено точно (доверие 2)  [141276C7]  (AR v2)
Трек  7  : извлечено точно (доверие 2)  [2C73B422]  (AR v2)
Трек  8  : извлечено точно (доверие 2)  [B0636269]  (AR v2)
Трек  9  : извлечено точно (доверие 2)  [918A98A1]  (AR v2)
Трек 10  : извлечено точно (доверие 2)  [B7B5D1CA]  (AR v2)
 
Все треки извлечены точно

Конец отчёта

---- CUETools DB Plugin V2.1.4

[CTDB TOCID: AIBjH8b9CmOsU7xooOjRCv8_Qkw-] found
Submit result: AIBjH8b9CmOsU7xooOjRCv8_Qkw- has been confirmed
Track | CTDB Status
  1   | (3/3) Accurately ripped
  2   | (3/3) Accurately ripped
  3   | (3/3) Accurately ripped
  4   | (2/3) Accurately ripped
  5   | (3/3) Accurately ripped
  6   | (3/3) Accurately ripped
  7   | (3/3) Accurately ripped
  8   | (3/3) Accurately ripped
  9   | (3/3) Accurately ripped
 10   | (3/3) Accurately ripped

==== Контрольная сумма отчёта F7740D85D9E0BB8ECDAB28D6488997B42A5A0BF073A3119FFE1791B72E0E5F52 ====

Код:

REM GENRE Alternative
REM DATE 2013
REM DISCID 890B060A
REM COMMENT "ExactAudioCopy v1.0b3"
PERFORMER "Zorge"
TITLE "Что мы знаем о равновесии?"
FILE "Zorge - Что мы знаем о равновесии.flac" WAVE
  TRACK 01 AUDIO
    TITLE "Девятый мяч"
    PERFORMER "Zorge"
    INDEX 01 00:00:00
  TRACK 02 AUDIO
    TITLE "Патруль"
    PERFORMER "Zorge"
    INDEX 01 04:30:72
  TRACK 03 AUDIO
    TITLE "Не доверять эстетике"
    PERFORMER "Zorge"
    INDEX 01 09:06:07
  TRACK 04 AUDIO
    TITLE "Люди ждут"
    PERFORMER "Zorge"
    INDEX 01 13:54:18
  TRACK 05 AUDIO
    TITLE "Ниоткуда"
    PERFORMER "Zorge"
    INDEX 01 18:41:35
  TRACK 06 AUDIO
    TITLE "Секрет"
    PERFORMER "Zorge"
    INDEX 01 22:46:18
  TRACK 07 AUDIO
    TITLE "Что утаил Ватикан?"
    PERFORMER "Zorge"
    INDEX 01 28:46:66
  TRACK 08 AUDIO
    TITLE "Голоса"
    PERFORMER "Zorge"
    INDEX 01 33:07:27
  TRACK 09 AUDIO
    TITLE "Киссинджер"
    PERFORMER "Zorge"
    INDEX 01 36:47:67
  TRACK 10 AUDIO
    TITLE "Маяк"
    PERFORMER "Zorge"
    INDEX 01 41:38:12

Discogs

Этот торрент недоступен для скачивания без регистрации, однако доступен по публичной magnet-ссылке (источники с публичных трекеров). Перед использованием ссылки прочтите, пожалуйста Пользовательское соглашение, а также как можно дольше оставайтесь на раздаче! Для того, чтобы скачать сам торрент-файл (который видит больше источников), а также для того, чтобы поблагодарить релизера, вам необходимо зарегистрироваться. Если регистрироваться лень - вы можете также попробовать скачать релиз по нашим партнерским ссылкам ниже. Кроме того, зарегистрированным пользователям не показывается всплывающая реклама при скачивании.

[underverse.me].t96413.torrent
Трекер: Зарегистрирован   [ 14.02.2018 18:18 ]  

Статус: проверено (by Бишеп at 14.02.2018 18:18)
Поблагодарили: пока никто не поблагодарил...
Тип торрента: публичный - доступные источники с открытых трекеров: 
Размер: 337 MB (занимает 0,08 DVDR, для записи нужно 1 болванка DVDR/RW)
 
 
Похожие темы
Форум Тема Автор Торрент Отв. Посл. сооб.
Зарубежная Pop Музыка (Alternative Pop, Neo Soul, Indie) Amanda Jenssen - Sanger fran on (2015) [MP3, 320 kbps] 90ytr90
1 | 1

0 | 1137

3

23.03.2015 19:02

Зарубежная Pop Музыка (Alternative, Indie) Anna of the North - Lovers (2017) [MP3, 320 kbps CBR] Darkferse
5 | 0

0 | 744

4

13.09.2017 08:47

Зарубежная Pop Музыка (Alternative, Pop, Soul) Plan B - Heaven Before All Hell Breaks Loose (2018) [MP3, 320 kbps CBR] 90ytr90
31 | 1

0 | 225

3

03.06.2018 05:52

Зарубежный Hard, Progressive, Soft, Melodic, AOR, Folk, Classic Rock (Alternative Rock / Progressive Rock) Muse - The 2nd Law (2012) [MP3, 320 kbps] Jimmy
0 | 0

0 | 1353

13

27.09.2012 04:30

Зарубежный Black, Death, Heavy, Thrash, Power, Folk, Gothic Metal (Alternative Metal) This Tragic Day - This Tragic Day (2012) [MP3, 320 kbps] NiiggazCPT
1 | 0

0 | 1539

4

28.10.2012 07:21

Зарубежный Punk, Hardcore, Grunge, Alternative (Alternative) Green Day - Greatest Hits: God's Favorite Band (2017) [iTunes AAC M4A, 256 kbps VBR] Web garry
2 | 0

5 | 3860

1

04.02.2010 17:52

Зарубежный Punk, Hardcore, Grunge, Alternative (Alternative) Red Hot Chili Peppers - Greatest Hits (2003) [iTunes AAC M4A, 256 kbps VBR] Web garry
3 | 5

0 | 2125

1

02.06.2009 18:51

Зарубежный Punk, Hardcore, Grunge, Alternative (Alternative) The Killers - Discography (2004-2013) [iTunes AAC M4A, 256 kbps VBR] Web garry
5 | 2

0 | 6110

4

20.06.2009 12:07

Зарубежный Punk, Hardcore, Grunge, Alternative (Alternative, Pop-Punk, Female Vocal) We Are the In Crowd - Weird Kids [Deluxe Edition] (2014) [MP3, 320 kbps] Jimmy
3 | 0

0 | 1183

3

23.04.2014 15:58

Зарубежный Punk, Hardcore, Grunge, Alternative (Alternative, Pop Punk, Emo) Fireworks - (Oh), Common Life (2014) [MP3, 320 kbps] Jimmy
1 | 0

0 | 957

4

23.04.2014 15:55


Яндекс.Метрика powered by Sphinx


В Н И М А Н И Е
Сайт не распространяет и не хранит электронные версии произведений, а лишь бесплатно и без коммерческой выгоды (не требуя взамен платы,
SMS и т.д.) предоставляет доступ к создаваемому пользователями каталогу ссылок на торрент-файлы, которые содержат только списки хеш-сумм.
Убедительная просьба с жалобами обращаться напрямую к пользователю, разместившему торрент файл.

Вверх