Loading...
Error

(Punk Rock, Ska) Элизиум - Снегири и Драконы (2015) [FLAC (Image+.Cue), Lossless]

Статистика раздачи
Размер:  418 MB   |    Зарегистрирован:  5 месяцев 2 дня   |    Скачан:  5 раз

Полного источника не было: 23 дня

Сидов:  0  |  0 KB/s  ]   Личеров:  0  |  0 KB/s  ]

* - сиды/пиры с внешних источников

   
 
Автор Сообщение

Бишеп Пол:Муж

15-Фев-2018 16:22

Элизиум - Снегири и Драконы

Жанр: Punk Rock, Ska
Год выпуска: 2015
Источник: CD
Производитель диска: Not On Label (Элизиум Self-Released) - none
Аудиокодек: FLAC
Тип рипа: Image+.CUE
Битрейт аудио: lossless
Продолжительность: 00:50:35


Треклист:
01. Все И Ничего...
02. То Сжигают Книги Feat. Lou
03. Как Мотылек
04. Снегири И Драконы
05. Инопланетяне
06. Черное Знамя
07. Свобода, Равенство И Братство
08. Ад Наш!
09. Как Кошки По Крышам
10. В Красном Платье
11. 100% Хит
12. Китаиская
13. На Танцы!
14. Когда Мы Были Младше
15. ...Все И Ничего

Код:

Exact Audio Copy V1.1 from 23. June 2015

Отчёт EAC об извлечении, выполненном 29. декабря 2015, 23:40

Элизиум / Снегири и драконы

Дисковод: TSSTcorpCDDVDW SN-208BB   Adapter: 1  ID: 0

Режим чтения                 : Достоверность
Использование точного потока : Да
Отключение кэша аудио        : Да
Использование указателей C2  : Нет

Коррекция смещения при чтении                     : 6
Способность читать области Lead-in и Lead-out     : Нет
Заполнение пропущенных сэмплов тишиной            : Да
Удаление блоков с тишиной в начале и конце        : Нет
При вычислениях CRC использовались нулевые сэмплы : Да
Интерфейс                                         : Встроенный Win32-интерфейс для Win NT/2000

Выходной формат          : Пользовательский кодировщик
Выбранный битрейт        : 128 kBit/s
Качество                 : Высокий
Добавление ID3-тега      : Нет
Утилита сжатия           : C:\Program Files (x86)\Exact Audio Copy\Flac\flac.exe
Дополнительные параметры : -V -8 -T "Date=%year%" -T "Genre=%genre%" %source%

TOC извлечённого CD

     Трек |   Старт  | Длительность | Начальный сектор | Конечный сектор
    ---------------------------------------------------------------------
       1  |  0:00.00 |    3:27.43   |           0      |      15567     
       2  |  3:27.43 |    3:22.52   |       15568      |      30769     
       3  |  6:50.20 |    3:51.69   |       30770      |      48163     
       4  | 10:42.14 |    3:26.25   |       48164      |      63638     
       5  | 14:08.39 |    2:42.57   |       63639      |      75845     
       6  | 16:51.21 |    2:35.11   |       75846      |      87481     
       7  | 19:26.32 |    3:31.38   |       87482      |     103344     
       8  | 22:57.70 |    3:29.17   |      103345      |     119036     
       9  | 26:27.12 |    3:24.00   |      119037      |     134336     
      10  | 29:51.12 |    2:46.06   |      134337      |     146792     
      11  | 32:37.18 |    3:51.52   |      146793      |     164169     
      12  | 36:28.70 |    3:28.32   |      164170      |     179801     
      13  | 39:57.27 |    3:33.18   |      179802      |     195794     
      14  | 43:30.45 |    3:21.04   |      195795      |     210873     
      15  | 46:51.49 |    3:42.67   |      210874      |     227590     

Характеристики диапазона извлечения и сообщения об ошибках

Выбранный диапазон

     Имя файла C:\Users\1\Desktop\Элизиум - 2015 - Снегири и драконы.wav

     Пиковый уровень 98.3 %
     Скорость извлечения 2.0 X
     Качество диапазона 100.0 %
     CRC теста 6F1674EB
     CRC копии 6F1674EB
     Копирование... OK

Ошибок не произошло

 
AccurateRip: сводка
 
Трек  1  : извлечено точно (доверие 2)  [401B2687]  (AR v2)
Трек  2  : извлечено точно (доверие 2)  [B127444C]  (AR v2)
Трек  3  : извлечено точно (доверие 2)  [B63CB97C]  (AR v2)
Трек  4  : извлечено точно (доверие 2)  [F3C4A53E]  (AR v2)
Трек  5  : извлечено точно (доверие 2)  [ED49499A]  (AR v2)
Трек  6  : извлечено точно (доверие 2)  [4A47D32E]  (AR v2)
Трек  7  : извлечено точно (доверие 2)  [F844FB11]  (AR v2)
Трек  8  : извлечено точно (доверие 2)  [5101B1B5]  (AR v2)
Трек  9  : извлечено точно (доверие 2)  [42CFB053]  (AR v2)
Трек 10  : извлечено точно (доверие 2)  [3F94BA5E]  (AR v2)
Трек 11  : извлечено точно (доверие 2)  [AA08C791]  (AR v2)
Трек 12  : извлечено точно (доверие 2)  [F48D07B5]  (AR v2)
Трек 13  : извлечено точно (доверие 2)  [6DA0EC78]  (AR v2)
Трек 14  : извлечено точно (доверие 2)  [B35B46CA]  (AR v2)
Трек 15  : извлечено точно (доверие 2)  [F186D5FF]  (AR v2)
 
Все треки извлечены точно

Конец отчёта

==== Контрольная сумма отчёта 691F8ABA57D6310407D5F65803FA7DDA74F92B589CD54C0C691F8BF333117686 ====

Код:

REM DATE 2015
REM DISCID D70BDA0F
REM COMMENT "ExactAudioCopy v1.1"
PERFORMER "Элизиум"
TITLE "Снегири и драконы"
FILE "Элизиум - 2015 - Снегири и драконы.flac" WAVE
  TRACK 01 AUDIO
    TITLE "Всё и ничего..."
    PERFORMER "Элизиум"
    INDEX 01 00:00:00
  TRACK 02 AUDIO
    TITLE "Где-то сжигают книги"
    PERFORMER "Элизиум"
    INDEX 01 03:27:43
  TRACK 03 AUDIO
    TITLE "Как мотылёк"
    PERFORMER "Элизиум"
    INDEX 01 06:50:20
  TRACK 04 AUDIO
    TITLE "Снегири и драконы"
    PERFORMER "Элизиум"
    INDEX 01 10:42:14
  TRACK 05 AUDIO
    TITLE "Инопланетяне"
    PERFORMER "Элизиум"
    INDEX 01 14:08:39
  TRACK 06 AUDIO
    TITLE "Чёрное знамя"
    PERFORMER "Элизиум"
    INDEX 01 16:51:21
  TRACK 07 AUDIO
    TITLE "Сводоба, равенство и братство"
    PERFORMER "Элизиум"
    INDEX 01 19:26:32
  TRACK 08 AUDIO
    TITLE "Ад наш!"
    PERFORMER "Элизиум"
    INDEX 01 22:57:70
  TRACK 09 AUDIO
    TITLE "Как кошки по крышам"
    PERFORMER "Элизиум"
    INDEX 01 26:27:12
  TRACK 10 AUDIO
    TITLE "В красном платье"
    PERFORMER "Элизиум"
    INDEX 01 29:51:12
  TRACK 11 AUDIO
    TITLE "100% хит"
    PERFORMER "Элизиум"
    INDEX 01 32:37:18
  TRACK 12 AUDIO
    TITLE "Китайская"
    PERFORMER "Элизиум"
    INDEX 01 36:28:70
  TRACK 13 AUDIO
    TITLE "На танцы!"
    PERFORMER "Элизиум"
    INDEX 01 39:57:27
  TRACK 14 AUDIO
    TITLE "Когда мы были младше"
    PERFORMER "Элизиум"
    INDEX 01 43:30:45
  TRACK 15 AUDIO
    TITLE "...Всё и ничего"
    PERFORMER "Элизиум"
    INDEX 01 46:51:49

Discogs

Этот торрент недоступен для скачивания без регистрации, однако доступен по публичной magnet-ссылке (источники с публичных трекеров). Перед использованием ссылки прочтите, пожалуйста Пользовательское соглашение, а также как можно дольше оставайтесь на раздаче! Для того, чтобы скачать сам торрент-файл (который видит больше источников), а также для того, чтобы поблагодарить релизера, вам необходимо зарегистрироваться. Если регистрироваться лень - вы можете также попробовать скачать релиз по нашим партнерским ссылкам ниже. Кроме того, зарегистрированным пользователям не показывается всплывающая реклама при скачивании.

[underverse.me].t96497.torrent
Трекер: Зарегистрирован   [ 15.02.2018 16:22 ]  

Статус: проверено (by Бишеп at 15.02.2018 16:23)
Поблагодарили: пока никто не поблагодарил...
Тип торрента: публичный - доступные источники с открытых трекеров: 
Размер: 418 MB (занимает 0,09 DVDR, для записи нужно 1 болванка DVDR/RW)
 
 
Похожие темы
Форум Тема Автор Торрент Отв. Посл. сооб.
Зарубежный Punk, Hardcore, Grunge, Alternative (Punk Rock/Street Punk) BRDigung - In Goldenen Ketten (2014) [MP3, 320 kbps] Jimmy
1 | 0

0 | 1059

4

23.04.2014 16:00

Зарубежный Punk, Hardcore, Grunge, Alternative (Punk Rock/Heavy Punk) Desakato - Buen Viaje (2014) [MP3, 320 kbps] Jimmy
1 | 0

0 | 799

5

23.04.2014 15:53

Зарубежный Punk, Hardcore, Grunge, Alternative (Punk Rock) Richie Ramone - Entitled [ex-Ramones] (2013) [MP3, 320 kbps] Jimmy
2 | 0

0 | 2031

2

21.12.2013 08:03

Зарубежный Punk, Hardcore, Grunge, Alternative (Punk Rock/Old School Pop Punk) The Bugs - 2 альбома (The Bugs/Missile To The Middle East) (2008/2013) [MP3, 320 kbps] Jimmy
0 | 0

0 | 2131

0

21.12.2013 08:06

Зарубежный Punk, Hardcore, Grunge, Alternative (Punk Rock) The So So Glos - Blowout (2013) [MP3, 320 kbps] Jimmy
1 | 0

0 | 1831

1

04.01.2014 10:17

Зарубежный Punk, Hardcore, Grunge, Alternative (Punk Rock | Melodic Hardcore) Noopinion - No Chains For Change (2013) [MP3, 320 kbps] Jimmy
1 | 0

0 | 1772

2

04.01.2014 14:20

Зарубежный Punk, Hardcore, Grunge, Alternative (Punk Rock) Stiff Little Fingers - No Going Back (2014) [MP3, 320 kbps] Jimmy
1 | 5

0 | 1761

5

23.03.2014 05:20

Зарубежный Punk, Hardcore, Grunge, Alternative (Punk Rock, Skate Punk, Melodic Punk) Authority Zero - Broadcasting To The Nations (2017) [MP3, 320 kbps CBR] Darkferse
11 | 0

0 | 833

2

02.06.2017 15:14

Зарубежный Punk, Hardcore, Grunge, Alternative (Punk Rock, Reggae) Anti-Nowhere League - League Style (Loosen Up Volume 1) (2017) [MP3, 320 kbps CBR] Darkferse
1 | 0

0 | 439

1

05.06.2017 23:58

Зарубежный Punk, Hardcore, Grunge, Alternative (Punk Rock) Beatsteaks - YOURS (2017) [MP3, 320 kbps CBR] Darkferse
6 | 1

0 | 503

1

06.09.2017 10:18


Яндекс.Метрика powered by Sphinx


В Н И М А Н И Е
Сайт не распространяет и не хранит электронные версии произведений, а лишь бесплатно и без коммерческой выгоды (не требуя взамен платы,
SMS и т.д.) предоставляет доступ к создаваемому пользователями каталогу ссылок на торрент-файлы, которые содержат только списки хеш-сумм.
Убедительная просьба с жалобами обращаться напрямую к пользователю, разместившему торрент файл.

Вверх