Loading...
Error

(Авторская песня, Шансон) Александр Розенбаум - Метафизика (2015) [FLAC (Tracks+.Cue), Lossless]

Статистика раздачи
Размер:  580 MB   |    Зарегистрирован:  5 месяцев 4 дня   |    Скачан:  4 раза

Полного источника не было: 4 дня

Сидов:  0  |  0 KB/s  ]   Личеров:  0  |  0 KB/s  ]

* - сиды/пиры с внешних источников

   
 
Автор Сообщение

Бишеп Пол:Муж

16-Фев-2018 06:10

Александр Розенбаум - Метафизика

Жанр: Авторская песня, Шансон
Год выпуска: 2015
Источник: CD
Производитель диска: United Music Group - UMG15 CD-5068
Аудиокодек: FLAC
Тип рипа: Tracks+.CUE
Битрейт аудио: lossless
Продолжительность: 01:08:07


Треклист:
01. На седьмом десятке (4:37)
02. Полотно (6:57)
03. Ожог (5:02)
04. Уходя-уходи (4:50)
05. Уставший город (5:01)
06. Космический мотив (5:15)
07. Фиолетовый каприз (4:02)
08. Скобяная лавка (4:36)
09. Мы уезжаем (3:43)
10. За мной (4:47)
11. Стейнвей-блюз (4:38)
12. Принцесса и вагант (5:05)
13. Метафизика (5:04)
14. Спасибо (4:30)

Код:

Exact Audio Copy V1.0 beta 3 from 29. August 2011

Отчёт EAC об извлечении, выполненном 14. декабря 2015, 14:10

Александр Розенбаум / Метафизика

Дисковод: PIONEER DVD-RW  DVR-218L   Adapter: 0  ID: 0

Режим чтения                 : Достоверность
Использование точного потока : Да
Отключение кэша аудио        : Да
Использование указателей C2  : Нет

Коррекция смещения при чтении                     : 6
Способность читать области Lead-in и Lead-out     : Нет
Заполнение пропущенных сэмплов тишиной            : Да
Удаление блоков с тишиной в начале и конце        : Нет
При вычислениях CRC использовались нулевые сэмплы : Да
Интерфейс                                         : Встроенный Win32-интерфейс для Win NT/2000
Обработка зазоров                                 : Добавлено к предыдущему треку

Выходной формат          : Пользовательский кодировщик
Выбранный битрейт        : 128 kBit/s
Качество                 : Высокий
Добавление ID3-тега      : Нет
Утилита сжатия           : C:\Program Files (x86)\Exact Audio Copy\Flac\flac.exe
Дополнительные параметры : -V -7 -T "Genre=%genre%" -T "Artist=%artist%" -T "Title=%title%" -T "Album=%albumtitle%" -T "Date=%year%" -T "Tracknumber=%tracknr%" -T "Comment=%comment%" %source%

TOC извлечённого CD

     Трек |   Старт  | Длительность | Начальный сектор | Конечный сектор
    ---------------------------------------------------------------------
       1  |  0:00.00 |    4:36.41   |           0      |      20740     
       2  |  4:36.41 |    6:57.05   |       20741      |      52020     
       3  | 11:33.46 |    5:01.63   |       52021      |      74658     
       4  | 16:35.34 |    4:49.61   |       74659      |      96394     
       5  | 21:25.20 |    5:01.12   |       96395      |     118981     
       6  | 26:26.32 |    5:15.09   |      118982      |     142615     
       7  | 31:41.41 |    4:01.59   |      142616      |     160749     
       8  | 35:43.25 |    4:36.17   |      160750      |     181466     
       9  | 40:19.42 |    3:43.19   |      181467      |     198210     
      10  | 44:02.61 |    4:47.10   |      198211      |     219745     
      11  | 48:49.71 |    4:38.18   |      219746      |     240613     
      12  | 53:28.14 |    5:04.52   |      240614      |     263465     
      13  | 58:32.66 |    5:04.01   |      263466      |     286266     
      14  | 63:36.67 |    4:29.48   |      286267      |     306489     

Трек  1

     Имя файла F:\_МУЗЫКА\Александр Розенбаум - Метафизика (2015)\01 На седьмом десятке.wav

     Длина предзазора  0:00:02.00

     Пиковый уровень 98.8 %
     Скорость извлечения 1.0 X
     Качество трека 99.9 %
     CRC теста 21C4786F
     CRC копии 21C4786F
     Трек не обнаружен в базе AccurateRip
     Копирование... OK

Трек  2

     Имя файла F:\_МУЗЫКА\Александр Розенбаум - Метафизика (2015)\02 Полотно.wav

     Пиковый уровень 98.8 %
     Скорость извлечения 1.4 X
     Качество трека 100.0 %
     CRC теста 79062EC8
     CRC копии 79062EC8
     Трек не обнаружен в базе AccurateRip
     Копирование... OK

Трек  3

     Имя файла F:\_МУЗЫКА\Александр Розенбаум - Метафизика (2015)\03 Ожог.wav

     Пиковый уровень 98.8 %
     Скорость извлечения 1.5 X
     Качество трека 100.0 %
     CRC теста 397AB7F0
     CRC копии 397AB7F0
     Трек не обнаружен в базе AccurateRip
     Копирование... OK

Трек  4

     Имя файла F:\_МУЗЫКА\Александр Розенбаум - Метафизика (2015)\04 Уходя-уходи.wav

     Пиковый уровень 98.8 %
     Скорость извлечения 1.4 X
     Качество трека 99.9 %
     CRC теста 0CDCEA14
     CRC копии 0CDCEA14
     Трек не обнаружен в базе AccurateRip
     Копирование... OK

Трек  5

     Имя файла F:\_МУЗЫКА\Александр Розенбаум - Метафизика (2015)\05 Уставший город.wav

     Пиковый уровень 98.8 %
     Скорость извлечения 1.7 X
     Качество трека 100.0 %
     CRC теста EDFB0344
     CRC копии EDFB0344
     Трек не обнаружен в базе AccurateRip
     Копирование... OK

Трек  6

     Имя файла F:\_МУЗЫКА\Александр Розенбаум - Метафизика (2015)\06 Космический мотив.wav

     Пиковый уровень 98.8 %
     Скорость извлечения 1.8 X
     Качество трека 100.0 %
     CRC теста 769A17DC
     CRC копии 769A17DC
     Трек не обнаружен в базе AccurateRip
     Копирование... OK

Трек  7

     Имя файла F:\_МУЗЫКА\Александр Розенбаум - Метафизика (2015)\07 Фиолетовый каприз.wav

     Пиковый уровень 98.8 %
     Скорость извлечения 1.9 X
     Качество трека 100.0 %
     CRC теста F977092E
     CRC копии F977092E
     Трек не обнаружен в базе AccurateRip
     Копирование... OK

Трек  8

     Имя файла F:\_МУЗЫКА\Александр Розенбаум - Метафизика (2015)\08 Скобяная лавка.wav

     Пиковый уровень 98.8 %
     Скорость извлечения 1.8 X
     Качество трека 99.9 %
     CRC теста EBAFA146
     CRC копии EBAFA146
     Трек не обнаружен в базе AccurateRip
     Копирование... OK

Трек  9

     Имя файла F:\_МУЗЫКА\Александр Розенбаум - Метафизика (2015)\09 Мы уезжаем.wav

     Пиковый уровень 98.8 %
     Скорость извлечения 2.0 X
     Качество трека 100.0 %
     CRC теста A6CF4FE2
     CRC копии A6CF4FE2
     Трек не обнаружен в базе AccurateRip
     Копирование... OK

Трек 10

     Имя файла F:\_МУЗЫКА\Александр Розенбаум - Метафизика (2015)\10 За мной.wav

     Пиковый уровень 98.8 %
     Скорость извлечения 1.9 X
     Качество трека 99.9 %
     CRC теста F36DFD81
     CRC копии F36DFD81
     Трек не обнаружен в базе AccurateRip
     Копирование... OK

Трек 11

     Имя файла F:\_МУЗЫКА\Александр Розенбаум - Метафизика (2015)\11 Стейнвей-блюз.wav

     Пиковый уровень 98.8 %
     Скорость извлечения 2.0 X
     Качество трека 99.9 %
     CRC теста 78DFA3B7
     CRC копии 78DFA3B7
     Трек не обнаружен в базе AccurateRip
     Копирование... OK

Трек 12

     Имя файла F:\_МУЗЫКА\Александр Розенбаум - Метафизика (2015)\12 Принцесса и вагант.wav

     Пиковый уровень 98.8 %
     Скорость извлечения 2.3 X
     Качество трека 100.0 %
     CRC теста 8B2A477A
     CRC копии 8B2A477A
     Трек не обнаружен в базе AccurateRip
     Копирование... OK

Трек 13

     Имя файла F:\_МУЗЫКА\Александр Розенбаум - Метафизика (2015)\13 Метафизика.wav

     Пиковый уровень 98.8 %
     Скорость извлечения 2.4 X
     Качество трека 100.0 %
     CRC теста CEAEC4BF
     CRC копии CEAEC4BF
     Трек не обнаружен в базе AccurateRip
     Копирование... OK

Трек 14

     Имя файла F:\_МУЗЫКА\Александр Розенбаум - Метафизика (2015)\14 Спасибо.wav

     Пиковый уровень 98.8 %
     Скорость извлечения 2.4 X
     Качество трека 100.0 %
     CRC теста 3F95C42E
     CRC копии 3F95C42E
     Трек не обнаружен в базе AccurateRip
     Копирование... OK

Ни одного трека нет в базе AccurateRip

Ошибок не произошло

Конец отчёта

Код:

REM GENRE "Авторская песня"
REM DATE 2015
REM DISCID D00FF60E
REM COMMENT "ExactAudioCopy v1.0b3"
PERFORMER "Александр Розенбаум"
TITLE "Метафизика"
FILE "01 На седьмом десятке.wav" WAVE
  TRACK 01 AUDIO
    TITLE "На седьмом десятке"
    PERFORMER "Александр Розенбаум"
    INDEX 01 00:00:00
FILE "02 Полотно.wav" WAVE
  TRACK 02 AUDIO
    TITLE "Полотно"
    PERFORMER "Александр Розенбаум"
    INDEX 01 00:00:00
FILE "03 Ожог.wav" WAVE
  TRACK 03 AUDIO
    TITLE "Ожог"
    PERFORMER "Александр Розенбаум"
    INDEX 01 00:00:00
FILE "04 Уходя-уходи.wav" WAVE
  TRACK 04 AUDIO
    TITLE "Уходя-уходи"
    PERFORMER "Александр Розенбаум"
    INDEX 01 00:00:00
FILE "05 Уставший город.wav" WAVE
  TRACK 05 AUDIO
    TITLE "Уставший город"
    PERFORMER "Александр Розенбаум"
    INDEX 01 00:00:00
FILE "06 Космический мотив.wav" WAVE
  TRACK 06 AUDIO
    TITLE "Космический мотив"
    PERFORMER "Александр Розенбаум"
    INDEX 01 00:00:00
FILE "07 Фиолетовый каприз.wav" WAVE
  TRACK 07 AUDIO
    TITLE "Фиолетовый каприз"
    PERFORMER "Александр Розенбаум"
    INDEX 01 00:00:00
FILE "08 Скобяная лавка.wav" WAVE
  TRACK 08 AUDIO
    TITLE "Скобяная лавка"
    PERFORMER "Александр Розенбаум"
    INDEX 01 00:00:00
FILE "09 Мы уезжаем.wav" WAVE
  TRACK 09 AUDIO
    TITLE "Мы уезжаем"
    PERFORMER "Александр Розенбаум"
    INDEX 01 00:00:00
FILE "10 За мной.wav" WAVE
  TRACK 10 AUDIO
    TITLE "За мной"
    PERFORMER "Александр Розенбаум"
    INDEX 01 00:00:00
FILE "11 Стейнвей-блюз.wav" WAVE
  TRACK 11 AUDIO
    TITLE "Стейнвей-блюз"
    PERFORMER "Александр Розенбаум"
    INDEX 01 00:00:00
FILE "12 Принцесса и вагант.wav" WAVE
  TRACK 12 AUDIO
    TITLE "Принцесса и вагант"
    PERFORMER "Александр Розенбаум"
    INDEX 01 00:00:00
FILE "13 Метафизика.wav" WAVE
  TRACK 13 AUDIO
    TITLE "Метафизика"
    PERFORMER "Александр Розенбаум"
    INDEX 01 00:00:00
FILE "14 Спасибо.wav" WAVE
  TRACK 14 AUDIO
    TITLE "Спасибо"
    PERFORMER "Александр Розенбаум"
    INDEX 01 00:00:00

Discogs

Этот торрент недоступен для скачивания без регистрации, однако доступен по публичной magnet-ссылке (источники с публичных трекеров). Перед использованием ссылки прочтите, пожалуйста Пользовательское соглашение, а также как можно дольше оставайтесь на раздаче! Для того, чтобы скачать сам торрент-файл (который видит больше источников), а также для того, чтобы поблагодарить релизера, вам необходимо зарегистрироваться. Если регистрироваться лень - вы можете также попробовать скачать релиз по нашим партнерским ссылкам ниже. Кроме того, зарегистрированным пользователям не показывается всплывающая реклама при скачивании.

[underverse.me].t96578.torrent
Трекер: Зарегистрирован   [ 16.02.2018 06:10 ]  

Статус: проверено (by Бишеп at 16.02.2018 06:10)
Поблагодарили: пока никто не поблагодарил...
Тип торрента: публичный - доступные источники с открытых трекеров: 
Размер: 580 MB (занимает 0,13 DVDR, для записи нужно 1 болванка DVDR/RW)
 
 
Похожие темы
Форум Тема Автор Торрент Отв. Посл. сооб.
Авторские песни, Барды (Авторская песня) Владимир Высоцкий - Полная коллекция (2009) [MP3, 320 kbps] Добрый жмот
21 | 5

11 | 5870

82

31.07.2013 07:22

Авторские песни, Барды (Авторская песня) Тимур Шаов - О чем молчал Герасим... (2010) [MP3, 320 kbps] KonKoSerg
5 | 0

4 | 2609

26

24.08.2013 06:03

Авторские песни, Барды (Авторская песня) Татьяна и Сергей Никитины - Городок, что я выдумал (2011) [MP3, 320 kbps] KonKoSerg
6 | 1

1 | 2898

40

11.05.2013 10:18

Авторские песни, Барды (Авторская песня) Владимир Высоцкий - Дискография [22 СD] (2001-2007) [MP3, 320 CBR] vovanig
2 | 0

2 | 3510

57

07.08.2014 19:18

Авторские песни, Барды (Авторская песня) Семён Слепаков - Альбом 1 (2012) [MP3, 320 kbps CBR] Бишеп
1 | 0

1 | 2051

53

11.05.2013 07:53

Авторские песни, Барды (Авторская песня, Фолк) Никола Емелин (Емеля) - Дискография (6 альбомов) (1989 - 2011) [MP3, 64-320 kbps] gregsib
14 | 0

1 | 2044

24

05.07.2013 18:48

Авторские песни, Барды (Авторская песня) Вячеслав Мясников (Уральские пельмени) - Сборник песен (2014) [MP3, 128-320 kbps CBR] terra07
1 | 0

1 | 2696

42

09.12.2015 14:37

Авторские песни, Барды (Авторская песня) Владимир Высоцкий - Спасибо, что живой. Песни из кинофильма... - и не только (2012) [MP3, 320 kbps CBR] valera87
3 | 0

0 | 1256

8

14.03.2015 16:31

Авторские песни, Барды (Lossless) (Авторская песня) Владимир Высоцкий - Grand Collection. Часть 1 / Часть 2 (2004) [FLAC (Tracks+.CUE), lossless] garry
1 | 0

1 | 1853

12

21.04.2012 07:06

# Авторские песни, Барды (Lossless) (Авторская песня) Евгений Баранник - На Прорезной (2010) [FLAC (Tracks+.CUE), lossless] garry
1 | 0

0 | 2420

1

20.02.2012 18:25


Яндекс.Метрика powered by Sphinx


В Н И М А Н И Е
Сайт не распространяет и не хранит электронные версии произведений, а лишь бесплатно и без коммерческой выгоды (не требуя взамен платы,
SMS и т.д.) предоставляет доступ к создаваемому пользователями каталогу ссылок на торрент-файлы, которые содержат только списки хеш-сумм.
Убедительная просьба с жалобами обращаться напрямую к пользователю, разместившему торрент файл.

Вверх