Loading...
Error

(Punk Rock) Тараканы! - Сила одного (2016) [FLAC (Image+.Cue), Lossless]

Статистика раздачи
Размер:  381 MB   |    Зарегистрирован:  5 месяцев 1 день   |    Скачан:  0 раз

Полного источника не было: 3 месяца 9 дней

Сидов:  0  |  0 KB/s  ]   Личеров:  0  |  0 KB/s  ]

* - сиды/пиры с внешних источников

   
 
Автор Сообщение

Бишеп Пол:Муж

16-Фев-2018 10:45

Тараканы! - Сила одного

Жанр: Punk Rock
Год выпуска: 2016
Источник: CD
Производитель диска: Soyuz Music - SZCD 1217-16
Аудиокодек: FLAC
Тип рипа: Image+.CUE
Битрейт аудио: lossless
Продолжительность: 01:04:52


Треклист:
01. Семь миллиардов
02. За тех, кто в меньшинстве
03. Ни рыбы, ни мяса
04. Ложь за ложь
05. Сила одного
06. Не по пути
07. Вечный кайф
08. Сто жизней
09. Кем ты был вчера
10. День победы
11. Между первым вдохом и последним выдохом
12. Ну хватит о политике (feat. Иван Глобин)

Код:

Exact Audio Copy V1.1 from 23. June 2015

EAC extraction logfile from 6. December 2016, 7:25

Тараканы! / Сила одного

Used drive  : PIONEER BD-RW   BDR-209D   Adapter: 0  ID: 5

Read mode               : Secure
Utilize accurate stream : Yes
Defeat audio cache      : Yes
Make use of C2 pointers : No

Read offset correction                      : 667
Overread into Lead-In and Lead-Out          : No
Fill up missing offset samples with silence : Yes
Delete leading and trailing silent blocks   : No
Null samples used in CRC calculations       : Yes
Used interface                              : Installed external ASPI interface

Used output format              : User Defined Encoder
Selected bitrate                : 768 kBit/s
Quality                         : High
Add ID3 tag                     : No
Command line compressor         : C:\Program Files (x86)\Exact Audio Copy\FLAC\FLAC.EXE
Additional command line options : -6 -V -T "ARTIST=%artist%" -T "TITLE=%title%" -T "ALBUM=%albumtitle%" -T "DATE=%year%" -T "TRACKNUMBER=%tracknr%" -T "GENRE=%genre%" -T "COMMENT=%comment%" -T "BAND=%albuminterpret%" -T "ALBUMARTIST=%albuminterpret%" -T "COMPOSER=%composer%" %haslyrics%--tag-from-file=LYRICS="%lyricsfile%"%haslyrics% -T "DISCNUMBER=%cdnumber%" -T "TOTALDISCS=%totalcds%" -T "TOTALTRACKS=%numtracks%" %hascover%--picture="%coverfile%"%hascover% %source% -o %dest%

TOC of the extracted CD

     Track |   Start  |  Length  | Start sector | End sector
    ---------------------------------------------------------
        1  |  0:00.00 |  3:28.43 |         0    |    15642   
        2  |  3:28.43 |  2:59.01 |     15643    |    29068   
        3  |  6:27.44 |  3:27.11 |     29069    |    44604   
        4  |  9:54.55 |  3:24.49 |     44605    |    59953   
        5  | 13:19.29 |  3:08.24 |     59954    |    74077   
        6  | 16:27.53 |  2:48.72 |     74078    |    86749   
        7  | 19:16.50 |  2:55.05 |     86750    |    99879   
        8  | 22:11.55 |  3:46.12 |     99880    |   116841   
        9  | 25:57.67 |  3:38.23 |    116842    |   133214   
       10  | 29:36.15 |  4:24.35 |    133215    |   153049   
       11  | 34:00.50 |  4:25.06 |    153050    |   172930   
       12  | 38:25.56 |  2:20.12 |    172931    |   183442   
       13  | 40:45.68 |  3:54.21 |    183443    |   201013   
       14  | 44:40.14 |  4:10.31 |    201014    |   219794   

Range status and errors

Selected range

     Filename E:\MUSIC\Тараканы! - Сила одного.wav

     Peak level 100.0 %
     Extraction speed 2.7 X
     Range quality 99.9 %
     Test CRC 544B1CFE
     Copy CRC 544B1CFE
     Copy OK

No errors occurred

 
AccurateRip summary
 
Track  1  not present in database
Track  2  not present in database
Track  3  not present in database
Track  4  not present in database
Track  5  not present in database
Track  6  not present in database
Track  7  not present in database
Track  8  not present in database
Track  9  not present in database
Track 10  not present in database
Track 11  not present in database
Track 12  not present in database
Track 13  not present in database
Track 14  not present in database
 
None of the tracks are present in the AccurateRip database

End of status report

==== Log checksum 2DADA1A8CE2229D9CF895E3B443ABBF57B3D3CD64107F3DF622564206C03E387 ====

Код:

REM GENRE Punk
REM DATE 2016
REM DISCID CB0B720E
REM COMMENT "ExactAudioCopy v1.1"
PERFORMER "Тараканы!"
TITLE "Сила одного"
FILE "Тараканы! - Сила одного.flac" WAVE
  TRACK 01 AUDIO
    TITLE "01. Семь миллиардов"
    PERFORMER "Тараканы!"
    INDEX 01 00:00:00
  TRACK 02 AUDIO
    TITLE "02. За тех, кто в меньшинстве"
    PERFORMER "Тараканы!"
    INDEX 01 03:28:43
  TRACK 03 AUDIO
    TITLE "03. Ни рыбы, ни мяса + гости"
    PERFORMER "Тараканы!"
    INDEX 01 06:27:44
  TRACK 04 AUDIO
    TITLE "04. Ложь за ложь"
    PERFORMER "Тараканы!"
    INDEX 01 09:54:55
  TRACK 05 AUDIO
    TITLE "05. Сила одного"
    PERFORMER "Тараканы!"
    INDEX 01 13:19:29
  TRACK 06 AUDIO
    TITLE "06. Не по пути"
    PERFORMER "Тараканы!"
    INDEX 01 16:27:53
  TRACK 07 AUDIO
    TITLE "07. Вечный кайф"
    PERFORMER "Тараканы!"
    INDEX 01 19:16:50
  TRACK 08 AUDIO
    TITLE "08. Сто жизней"
    PERFORMER "Тараканы!"
    INDEX 01 22:11:55
  TRACK 09 AUDIO
    TITLE "09. Кем ты был вчера"
    PERFORMER "Тараканы!"
    INDEX 01 25:57:67
  TRACK 10 AUDIO
    TITLE "10. День победы"
    PERFORMER "Тараканы!"
    INDEX 01 29:36:15
  TRACK 11 AUDIO
    TITLE "11. Между первым вдохом и последним выдохом"
    PERFORMER "Тараканы!"
    INDEX 01 34:00:50
  TRACK 12 AUDIO
    TITLE "12. Ну хватит о политике feat. Иван Глобин"
    PERFORMER "Тараканы!"
    INDEX 01 38:25:56
  TRACK 13 AUDIO
    TITLE "13. Что я могу изменить?"
    PERFORMER "Тараканы!"
    INDEX 01 40:45:68
  TRACK 14 AUDIO
    TITLE "14. Да здравствует Король!"
    PERFORMER "Тараканы!"
    INDEX 01 44:40:14

Discogs

Этот торрент недоступен для скачивания без регистрации, однако доступен по публичной magnet-ссылке (источники с публичных трекеров). Перед использованием ссылки прочтите, пожалуйста Пользовательское соглашение, а также как можно дольше оставайтесь на раздаче! Для того, чтобы скачать сам торрент-файл (который видит больше источников), а также для того, чтобы поблагодарить релизера, вам необходимо зарегистрироваться. Если регистрироваться лень - вы можете также попробовать скачать релиз по нашим партнерским ссылкам ниже. Кроме того, зарегистрированным пользователям не показывается всплывающая реклама при скачивании.

[underverse.me].t96615.torrent
Трекер: Зарегистрирован   [ 16.02.2018 10:45 ]  

Статус: проверено (by Бишеп at 16.02.2018 10:45)
Поблагодарили: пока никто не поблагодарил...
Тип торрента: публичный - доступные источники с открытых трекеров: 
Размер: 381 MB (занимает 0,09 DVDR, для записи нужно 1 болванка DVDR/RW)
 
 
Похожие темы
Форум Тема Автор Торрент Отв. Посл. сооб.
Зарубежный Punk, Hardcore, Grunge, Alternative (Punk Rock/Street Punk) BRDigung - In Goldenen Ketten (2014) [MP3, 320 kbps] Jimmy
1 | 0

0 | 1059

4

23.04.2014 16:00

Зарубежный Punk, Hardcore, Grunge, Alternative (Punk Rock/Heavy Punk) Desakato - Buen Viaje (2014) [MP3, 320 kbps] Jimmy
1 | 0

0 | 799

5

23.04.2014 15:53

Зарубежный Punk, Hardcore, Grunge, Alternative (Punk Rock) Richie Ramone - Entitled [ex-Ramones] (2013) [MP3, 320 kbps] Jimmy
2 | 0

0 | 2031

2

21.12.2013 08:03

Зарубежный Punk, Hardcore, Grunge, Alternative (Punk Rock/Old School Pop Punk) The Bugs - 2 альбома (The Bugs/Missile To The Middle East) (2008/2013) [MP3, 320 kbps] Jimmy
0 | 0

0 | 2131

0

21.12.2013 08:06

Зарубежный Punk, Hardcore, Grunge, Alternative (Punk Rock) The So So Glos - Blowout (2013) [MP3, 320 kbps] Jimmy
1 | 0

0 | 1831

1

04.01.2014 10:17

Зарубежный Punk, Hardcore, Grunge, Alternative (Punk Rock | Melodic Hardcore) Noopinion - No Chains For Change (2013) [MP3, 320 kbps] Jimmy
1 | 0

0 | 1772

2

04.01.2014 14:20

Зарубежный Punk, Hardcore, Grunge, Alternative (Punk Rock) Stiff Little Fingers - No Going Back (2014) [MP3, 320 kbps] Jimmy
1 | 5

0 | 1761

5

23.03.2014 05:20

Зарубежный Punk, Hardcore, Grunge, Alternative (Punk Rock, Skate Punk, Melodic Punk) Authority Zero - Broadcasting To The Nations (2017) [MP3, 320 kbps CBR] Darkferse
11 | 0

0 | 833

2

02.06.2017 15:14

Зарубежный Punk, Hardcore, Grunge, Alternative (Punk Rock, Reggae) Anti-Nowhere League - League Style (Loosen Up Volume 1) (2017) [MP3, 320 kbps CBR] Darkferse
1 | 0

0 | 439

1

05.06.2017 23:58

Зарубежный Punk, Hardcore, Grunge, Alternative (Punk Rock) Beatsteaks - YOURS (2017) [MP3, 320 kbps CBR] Darkferse
6 | 1

0 | 503

1

06.09.2017 10:18


Яндекс.Метрика powered by Sphinx


В Н И М А Н И Е
Сайт не распространяет и не хранит электронные версии произведений, а лишь бесплатно и без коммерческой выгоды (не требуя взамен платы,
SMS и т.д.) предоставляет доступ к создаваемому пользователями каталогу ссылок на торрент-файлы, которые содержат только списки хеш-сумм.
Убедительная просьба с жалобами обращаться напрямую к пользователю, разместившему торрент файл.

Вверх