Loading...
Error

(CardioWave, Folk Rock) Елена Войнаровская (Fleur) - Присутствие (2016) [FLAC (Tracks+.Cue), Lossless]

Статистика раздачи
Размер:  567 MB   |    Зарегистрирован:  5 месяцев 1 день   |    Скачан:  2 раза

Полного источника не было: 6 дней

Сидов:  0  |  0 KB/s  ]   Личеров:  0  |  0 KB/s  ]

* - сиды/пиры с внешних источников

   
 
Автор Сообщение

Бишеп Пол:Муж

16-Фев-2018 18:36

Елена Войнаровская (Fleur) - Присутствие

Жанр: CardioWave, Folk Rock
Год выпуска: 2016
Источник: CD
Производитель диска: CardioWave
Аудиокодек: FLAC
Тип рипа: Tracks+.CUE
Битрейт аудио: lossless
Продолжительность: 01:14:39


Треклист:
01. Присутствие
02. Карфаген
03. Двое у окна
04. Кофейные зёрнышки
05. Эдельвейсы
06. Банка с краской
07. Огнекрылый дракон
08. Налегке
09. Если выпадет снег
10. Тысячи вольт
11. Город в солнце (Оберманекен cover)
12. Автопортрет
13. Уходили парни на войну
14. Большая ложь
15. То, что делает нас людьми

Код:

Exact Audio Copy V1.3 from 2. September 2016

EAC extraction logfile from 8. October 2016, 2:44

Елена Войнаровская / Присутствие

Used drive  : Optiarc DVD RW AD-7760H   Adapter: 1  ID: 0

Read mode               : Secure
Utilize accurate stream : Yes
Defeat audio cache      : Yes
Make use of C2 pointers : No

Read offset correction                      : 48
Overread into Lead-In and Lead-Out          : No
Fill up missing offset samples with silence : Yes
Delete leading and trailing silent blocks   : No
Null samples used in CRC calculations       : Yes
Used interface                              : Installed external ASPI interface
Gap handling                                : Appended to previous track

Used output format              : User Defined Encoder
Selected bitrate                : 768 kBit/s
Quality                         : High
Add ID3 tag                     : Yes
Command line compressor         : C:\Program Files (x86)\Exact Audio Copy\Flac\flac.exe
Additional command line options : -8 -V -T "TITLE=%title%" -T "ARTIST=%artist%" -T "ALBUMARTIST=%albumartist%" -T "ALBUM=%albumtitle%" -T "DATE=%year%" -T "TRACKNUMBER=%tracknr%" -T "TRACKTOTAL=%numtracks%" -T "GENRE=%genre%" -T "COMMENT=%comment%" -T "PERFORMER=%albuminterpret%" -T "COMPOSER=%composer%" %source% -o %dest%

TOC of the extracted CD

     Track |   Start  |  Length  | Start sector | End sector
    ---------------------------------------------------------
        1  |  0:00.00 |  4:08.49 |         0    |    18648   
        2  |  4:08.49 |  5:26.07 |     18649    |    43105   
        3  |  9:34.56 |  5:35.28 |     43106    |    68258   
        4  | 15:10.09 |  4:44.34 |     68259    |    89592   
        5  | 19:54.43 |  4:44.00 |     89593    |   110892   
        6  | 24:38.43 |  4:37.25 |    110893    |   131692   
        7  | 29:15.68 |  3:51.43 |    131693    |   149060   
        8  | 33:07.36 |  5:06.00 |    149061    |   172010   
        9  | 38:13.36 |  4:24.00 |    172011    |   191810   
       10  | 42:37.36 |  3:20.00 |    191811    |   206810   
       11  | 45:57.36 |  5:44.29 |    206811    |   232639   
       12  | 51:41.65 |  7:44.33 |    232640    |   267472   
       13  | 59:26.23 |  5:16.44 |    267473    |   291216   
       14  | 64:42.67 |  4:01.65 |    291217    |   309356   
       15  | 68:44.57 |  5:49.30 |    309357    |   335561   

Track  1

     Filename D:\Раздачи\2016 - Присутствие\01- Присутствие.wav

     Pre-gap length  0:00:02.00

     Peak level 99.9 %
     Extraction speed 1.1 X
     Track quality 99.9 %
     Test CRC 6C71DC7E
     Copy CRC 6C71DC7E
     Copy OK

Track  2

     Filename D:\Раздачи\2016 - Присутствие\02 - Карфаген.wav

     Peak level 99.9 %
     Extraction speed 1.4 X
     Track quality 100.0 %
     Test CRC 02DB98AC
     Copy CRC 02DB98AC
     Copy OK

Track  3

     Filename D:\Раздачи\2016 - Присутствие\03 - Двое у окна.wav

     Peak level 99.9 %
     Extraction speed 1.6 X
     Track quality 100.0 %
     Test CRC 74693419
     Copy CRC 74693419
     Copy OK

Track  4

     Filename D:\Раздачи\2016 - Присутствие\04 - Кофейные зёрнышки.wav

     Peak level 99.9 %
     Extraction speed 1.7 X
     Track quality 100.0 %
     Test CRC 4F80566C
     Copy CRC 4F80566C
     Copy OK

Track  5

     Filename D:\Раздачи\2016 - Присутствие\05 - Эдельвейсы.wav

     Peak level 99.9 %
     Extraction speed 1.8 X
     Track quality 100.0 %
     Test CRC 202279B2
     Copy CRC 202279B2
     Copy OK

Track  6

     Filename D:\Раздачи\2016 - Присутствие\06 - Банка с краской.wav

     Peak level 99.9 %
     Extraction speed 1.9 X
     Track quality 100.0 %
     Test CRC 93EEC752
     Copy CRC 93EEC752
     Copy OK

Track  7

     Filename D:\Раздачи\2016 - Присутствие\07 - Огнекрылый дракон.wav

     Peak level 99.9 %
     Extraction speed 1.9 X
     Track quality 100.0 %
     Test CRC E393DDA3
     Copy CRC E393DDA3
     Copy OK

Track  8

     Filename D:\Раздачи\2016 - Присутствие\08 - Налегке.wav

     Peak level 99.9 %
     Extraction speed 2.1 X
     Track quality 100.0 %
     Test CRC 4C656352
     Copy CRC 4C656352
     Copy OK

Track  9

     Filename D:\Раздачи\2016 - Присутствие\09 - Если выпадет снег.wav

     Peak level 99.8 %
     Extraction speed 2.1 X
     Track quality 100.0 %
     Test CRC E41F775F
     Copy CRC E41F775F
     Copy OK

Track 10

     Filename D:\Раздачи\2016 - Присутствие\10 - Тысячи вольт.wav

     Peak level 100.0 %
     Extraction speed 2.1 X
     Track quality 100.0 %
     Test CRC 07582206
     Copy CRC 07582206
     Copy OK

Track 11

     Filename D:\Раздачи\2016 - Присутствие\11 - Город в солнце.wav

     Peak level 99.9 %
     Extraction speed 2.3 X
     Track quality 100.0 %
     Test CRC CB0B186B
     Copy CRC CB0B186B
     Copy OK

Track 12

     Filename D:\Раздачи\2016 - Присутствие\12 - Автопортрет.wav

     Peak level 99.9 %
     Extraction speed 2.4 X
     Track quality 99.9 %
     Test CRC A9077CB1
     Copy CRC A9077CB1
     Copy OK

Track 13

     Filename D:\Раздачи\2016 - Присутствие\13 - Уходили парни на войну.wav

     Peak level 99.8 %
     Extraction speed 2.5 X
     Track quality 100.0 %
     Test CRC 898A6C93
     Copy CRC 898A6C93
     Copy OK

Track 14

     Filename D:\Раздачи\2016 - Присутствие\14 - Большая ложь.wav

     Peak level 95.2 %
     Extraction speed 2.5 X
     Track quality 100.0 %
     Test CRC EE4A082E
     Copy CRC EE4A082E
     Copy OK

Track 15

     Filename D:\Раздачи\2016 - Присутствие\15 - То, что делает нас людьми.wav

     Peak level 99.9 %
     Extraction speed 2.7 X
     Track quality 100.0 %
     Test CRC 87B4513E
     Copy CRC 87B4513E
     Copy OK

No errors occurred

End of status report

---- CUETools DB Plugin V2.1.6

[CTDB TOCID: JkiOjmJG8A_hXcyXlB3qFHzK1Ig-] found
Submit result: already submitted
Track | CTDB Status
  1   | (3/3) Accurately ripped
  2   | (3/3) Accurately ripped
  3   | (3/3) Accurately ripped
  4   | (3/3) Accurately ripped
  5   | (3/3) Accurately ripped
  6   | (3/3) Accurately ripped
  7   | (3/3) Accurately ripped
  8   | (3/3) Accurately ripped
  9   | (3/3) Accurately ripped
 10   | (3/3) Accurately ripped
 11   | (3/3) Accurately ripped
 12   | (3/3) Accurately ripped
 13   | (3/3) Accurately ripped
 14   | (3/3) Accurately ripped
 15   | (3/3) Accurately ripped

Код:

REM GENRE Cardiowave
REM DATE 2016
REM DISCID F3117A0F
REM COMMENT "ExactAudioCopy v1.3"
PERFORMER "Елена Войнаровская"
TITLE "Присутствие"
REM COMPOSER ""
FILE "01- Присутствие.wav" WAVE
  TRACK 01 AUDIO
    TITLE "Присутствие"
    PERFORMER "Елена Войнаровская"
    REM COMPOSER ""
    INDEX 01 00:00:00
FILE "02 - Карфаген.wav" WAVE
  TRACK 02 AUDIO
    TITLE "Карфаген"
    PERFORMER "Елена Войнаровская"
    REM COMPOSER ""
    INDEX 01 00:00:00
FILE "03 - Двое у окна.wav" WAVE
  TRACK 03 AUDIO
    TITLE "Двое у окна"
    PERFORMER "Елена Войнаровская"
    REM COMPOSER ""
    INDEX 01 00:00:00
FILE "04 - Кофейные зёрнышки.wav" WAVE
  TRACK 04 AUDIO
    TITLE "Кофейные зёрнышки"
    PERFORMER "Елена Войнаровская"
    REM COMPOSER ""
    INDEX 01 00:00:00
FILE "05 - Эдельвейсы.wav" WAVE
  TRACK 05 AUDIO
    TITLE "Эдельвейсы"
    PERFORMER "Елена Войнаровская"
    REM COMPOSER ""
    INDEX 01 00:00:00
FILE "06 - Банка с краской.wav" WAVE
  TRACK 06 AUDIO
    TITLE "Банка с краской"
    PERFORMER "Елена Войнаровская"
    REM COMPOSER ""
    INDEX 01 00:00:00
FILE "07 - Огнекрылый дракон.wav" WAVE
  TRACK 07 AUDIO
    TITLE "Огнекрылый дракон"
    PERFORMER "Елена Войнаровская"
    REM COMPOSER ""
    INDEX 01 00:00:00
FILE "08 - Налегке.wav" WAVE
  TRACK 08 AUDIO
    TITLE "Налегке"
    PERFORMER "Елена Войнаровская"
    REM COMPOSER ""
    INDEX 01 00:00:00
FILE "09 - Если выпадет снег.wav" WAVE
  TRACK 09 AUDIO
    TITLE "Если выпадет снег"
    PERFORMER "Елена Войнаровская"
    REM COMPOSER ""
    INDEX 01 00:00:00
FILE "10 - Тысячи вольт.wav" WAVE
  TRACK 10 AUDIO
    TITLE "Тысячи вольт"
    PERFORMER "Елена Войнаровская"
    REM COMPOSER ""
    INDEX 01 00:00:00
FILE "11 - Город в солнце.wav" WAVE
  TRACK 11 AUDIO
    TITLE "Город в солнце"
    PERFORMER "Елена Войнаровская"
    REM COMPOSER ""
    INDEX 01 00:00:00
FILE "12 - Автопортрет.wav" WAVE
  TRACK 12 AUDIO
    TITLE "Автопортрет"
    PERFORMER "Елена Войнаровская"
    REM COMPOSER ""
    INDEX 01 00:00:00
FILE "13 - Уходили парни на войну.wav" WAVE
  TRACK 13 AUDIO
    TITLE "Уходили парни на войну"
    PERFORMER "Елена Войнаровская"
    REM COMPOSER ""
    INDEX 01 00:00:00
FILE "14 - Большая ложь.wav" WAVE
  TRACK 14 AUDIO
    TITLE "Большая ложь"
    PERFORMER "Елена Войнаровская"
    REM COMPOSER ""
    INDEX 01 00:00:00
FILE "15 - То, что делает нас людьми.wav" WAVE
  TRACK 15 AUDIO
    TITLE "То, что делает нас людьми"
    PERFORMER "Елена Войнаровская"
    REM COMPOSER ""
    INDEX 01 00:00:00

Этот торрент недоступен для скачивания без регистрации, однако доступен по публичной magnet-ссылке (источники с публичных трекеров). Перед использованием ссылки прочтите, пожалуйста Пользовательское соглашение, а также как можно дольше оставайтесь на раздаче! Для того, чтобы скачать сам торрент-файл (который видит больше источников), а также для того, чтобы поблагодарить релизера, вам необходимо зарегистрироваться. Если регистрироваться лень - вы можете также попробовать скачать релиз по нашим партнерским ссылкам ниже. Кроме того, зарегистрированным пользователям не показывается всплывающая реклама при скачивании.

[underverse.me].t96763.torrent
Трекер: Зарегистрирован   [ 16.02.2018 18:36 ]  

Статус: проверено (by Бишеп at 16.02.2018 18:36)
Поблагодарили: пока никто не поблагодарил...
Тип торрента: публичный - доступные источники с открытых трекеров: 
Размер: 567 MB (занимает 0,13 DVDR, для записи нужно 1 болванка DVDR/RW)
 
 
Похожие темы
Форум Тема Автор Торрент Отв. Посл. сооб.
Отечественный Punk, Grunge, Alternative (Lossless) (CardioWave, Folk Rock, Neo-Classical) Fleur - Знаки (2014) [FLAC (Tracks+.Cue), Lossless] Бишеп
14 | 1

0 | 435

2

14.02.2018 07:07

Отечественный Punk, Grunge, Alternative (Lossless) (CardioWave, Folk Rock, Modern Classical) Fleur - Волшебство (2008) [FLAC (Image+.Cue), Lossless] Бишеп
5 | 0

0 | 189

1

16.02.2018 20:05


Яндекс.Метрика powered by Sphinx


В Н И М А Н И Е
Сайт не распространяет и не хранит электронные версии произведений, а лишь бесплатно и без коммерческой выгоды (не требуя взамен платы,
SMS и т.д.) предоставляет доступ к создаваемому пользователями каталогу ссылок на торрент-файлы, которые содержат только списки хеш-сумм.
Убедительная просьба с жалобами обращаться напрямую к пользователю, разместившему торрент файл.

Вверх