Loading...
Error

(Blues) Peter Green - Rock & Pop Legends (1995) [FLAC (Image+.Cue), Lossless]

Статистика раздачи
Размер:  344 MB   |    Зарегистрирован:  4 месяца 3 дня   |    Скачан:  2 раза

Полного источника не было: 3 месяца 11 дней

Сидов:  0  |  0 KB/s  ]   Личеров:  0  |  0 KB/s  ]

* - сиды/пиры с внешних источников

   
 
Автор Сообщение

Бишеп Пол:Муж

18-Фев-2018 15:00

Peter Green - Rock & Pop Legends

Жанр: Blues
Год выпуска:
Источник: C1995D
Производитель диска: Disky - RPCD 012
Аудиокодек: FLAC
Тип рипа: Image+.CUE
Битрейт аудио: lossless
Продолжительность: 00:59:18


Треклист:
01. In The Skies
02. Slabo Day
03. Apostle
04. Loser Two Times
05. Baby When The Sun Goes Down
06. One Woman Love
07. Time For Me To Go
08 The Clown
09. Proud Pinto
10. Bullet In The Sky
11. Last Train To San Antone
12. Watcha Gonna Do
13. Woman Don't
14. Bandit

Код:

Exact Audio Copy V1.0 beta 3 from 29. August 2011

EAC extraction logfile from 16. January 2017, 7:12

Peter Green / Rock & Pop Legends

Used drive  : TSSTcorpCDDVDW SH-216DB   Adapter: 0  ID: 0

Read mode               : Secure
Utilize accurate stream : Yes
Defeat audio cache      : Yes
Make use of C2 pointers : No

Read offset correction                      : 6
Overread into Lead-In and Lead-Out          : No
Fill up missing offset samples with silence : Yes
Delete leading and trailing silent blocks   : No
Null samples used in CRC calculations       : Yes
Used interface                              : Native Win32 interface for Win NT & 2000

Used output format              : User Defined Encoder
Selected bitrate                : 1024 kBit/s
Quality                         : High
Add ID3 tag                     : No
Command line compressor         : C:\Program Files (x86)\Exact Audio Copy\Flac\flac.exe
Additional command line options : -V -8 -T "Date=%year%" -T "Genre=%genre%" %source%

TOC of the extracted CD

     Track |   Start  |  Length  | Start sector | End sector
    ---------------------------------------------------------
        1  |  0:00.32 |  3:48.53 |        32    |    17184   
        2  |  3:49.10 |  5:06.20 |     17185    |    40154   
        3  |  8:55.30 |  3:11.72 |     40155    |    54551   
        4  | 12:07.27 |  4:31.45 |     54552    |    74921   
        5  | 16:38.72 |  5:36.00 |     74922    |   100121   
        6  | 22:14.72 |  5:32.30 |    100122    |   125051   
        7  | 27:47.27 |  3:54.53 |    125052    |   142654   
        8  | 31:42.05 |  6:04.02 |    142655    |   169956   
        9  | 37:46.07 |  3:42.45 |    169957    |   186651   
       10  | 41:28.52 |  3:23.43 |    186652    |   201919   
       11  | 44:52.20 |  5:32.67 |    201920    |   226886   
       12  | 50:25.12 |  3:50.18 |    226887    |   244154   
       13  | 54:15.30 |  5:03.32 |    244155    |   266911   
       14  | 59:18.62 |  2:57.40 |    266912    |   280226   

Range status and errors

Selected range

     Filename L:\Private\My Audio Ripps\ CD - RIPS\Peter Green - Rock & Pop Legends\Peter Green - Rock & Pop Legends.wav

     Peak level 98.3 %
     Extraction speed 2.4 X
     Range quality 99.9 %
     Test CRC 36E3BB83
     Copy CRC 36E3BB83
     Copy OK

No errors occurred

 
AccurateRip summary
 
Track  1  accurately ripped (confidence 22)  [73C1229A]  (AR v2)
Track  2  accurately ripped (confidence 22)  [DAE4E981]  (AR v2)
Track  3  accurately ripped (confidence 22)  [B602A3C3]  (AR v2)
Track  4  accurately ripped (confidence 22)  [7235A6EC]  (AR v2)
Track  5  accurately ripped (confidence 22)  [E43EDDC3]  (AR v2)
Track  6  accurately ripped (confidence 22)  [0ED99270]  (AR v2)
Track  7  accurately ripped (confidence 22)  [0DD6DC55]  (AR v2)
Track  8  accurately ripped (confidence 22)  [575C2400]  (AR v2)
Track  9  accurately ripped (confidence 22)  [4B014F38]  (AR v2)
Track 10  accurately ripped (confidence 22)  [604B7A0B]  (AR v2)
Track 11  accurately ripped (confidence 22)  [D66E9332]  (AR v2)
Track 12  accurately ripped (confidence 22)  [D9AD5830]  (AR v2)
Track 13  accurately ripped (confidence 22)  [9142CFD5]  (AR v2)
Track 14  accurately ripped (confidence 22)  [8B07E108]  (AR v2)
 
All tracks accurately ripped

End of status report

==== Log checksum 92533D0EC43C5F52E4545BEE17C2A8ADA665C225A6D5152A245B72481EAAF7BD ====

------------------------------------------------------------

Exact Audio Copy V1.0 beta 3 from 29. August 2011

EAC extraction logfile from 16. January 2017, 7:12

Peter Green / Rock & Pop Legends

Used drive  : TSSTcorpCDDVDW SH-216DB   Adapter: 0  ID: 0

Read mode               : Secure
Utilize accurate stream : Yes
Defeat audio cache      : Yes
Make use of C2 pointers : No

Read offset correction                      : 6
Overread into Lead-In and Lead-Out          : No
Fill up missing offset samples with silence : Yes
Delete leading and trailing silent blocks   : No
Null samples used in CRC calculations       : Yes
Used interface                              : Native Win32 interface for Win NT & 2000

Used output format              : User Defined Encoder
Selected bitrate                : 1024 kBit/s
Quality                         : High
Add ID3 tag                     : No
Command line compressor         : C:\Program Files (x86)\Exact Audio Copy\Flac\flac.exe
Additional command line options : -V -8 -T "Date=%year%" -T "Genre=%genre%" %source%

TOC of the extracted CD

     Track |   Start  |  Length  | Start sector | End sector
    ---------------------------------------------------------
        1  |  0:00.32 |  3:48.53 |        32    |    17184   
        2  |  3:49.10 |  5:06.20 |     17185    |    40154   
        3  |  8:55.30 |  3:11.72 |     40155    |    54551   
        4  | 12:07.27 |  4:31.45 |     54552    |    74921   
        5  | 16:38.72 |  5:36.00 |     74922    |   100121   
        6  | 22:14.72 |  5:32.30 |    100122    |   125051   
        7  | 27:47.27 |  3:54.53 |    125052    |   142654   
        8  | 31:42.05 |  6:04.02 |    142655    |   169956   
        9  | 37:46.07 |  3:42.45 |    169957    |   186651   
       10  | 41:28.52 |  3:23.43 |    186652    |   201919   
       11  | 44:52.20 |  5:32.67 |    201920    |   226886   
       12  | 50:25.12 |  3:50.18 |    226887    |   244154   
       13  | 54:15.30 |  5:03.32 |    244155    |   266911   
       14  | 59:18.62 |  2:57.40 |    266912    |   280226   

Range status and errors

Selected range

     Filename L:\Private\My Audio Ripps\ CD - RIPS\Peter Green - Rock & Pop Legends\Peter Green - Rock & Pop Legends.wav

     Peak level 98.3 %
     Extraction speed 2.4 X
     Range quality 99.9 %
     Test CRC 36E3BB83
     Copy CRC 36E3BB83
     Copy OK

No errors occurred

 
AccurateRip summary
 
Track  1  accurately ripped (confidence 22)  [73C1229A]  (AR v2)
Track  2  accurately ripped (confidence 22)  [DAE4E981]  (AR v2)
Track  3  accurately ripped (confidence 22)  [B602A3C3]  (AR v2)
Track  4  accurately ripped (confidence 22)  [7235A6EC]  (AR v2)
Track  5  accurately ripped (confidence 22)  [E43EDDC3]  (AR v2)
Track  6  accurately ripped (confidence 22)  [0ED99270]  (AR v2)
Track  7  accurately ripped (confidence 22)  [0DD6DC55]  (AR v2)
Track  8  accurately ripped (confidence 22)  [575C2400]  (AR v2)
Track  9  accurately ripped (confidence 22)  [4B014F38]  (AR v2)
Track 10  accurately ripped (confidence 22)  [604B7A0B]  (AR v2)
Track 11  accurately ripped (confidence 22)  [D66E9332]  (AR v2)
Track 12  accurately ripped (confidence 22)  [D9AD5830]  (AR v2)
Track 13  accurately ripped (confidence 22)  [9142CFD5]  (AR v2)
Track 14  accurately ripped (confidence 22)  [8B07E108]  (AR v2)
 
All tracks accurately ripped

End of status report

==== Log checksum 92533D0EC43C5F52E4545BEE17C2A8ADA665C225A6D5152A245B72481EAAF7BD ====

Код:

REM GENRE Rock-Blues
REM DATE 1995
REM DISCID BC0E980E
REM COMMENT "ExactAudioCopy v1.0b3"
PERFORMER "Peter Green"
TITLE "Rock & Pop Legends"
FILE "Peter Green - Rock & Pop Legends.flac" WAVE
  TRACK 01 AUDIO
    TITLE "In the skies"
    PERFORMER "Peter Green"
    INDEX 00 00:00:00
    INDEX 01 00:00:32
  TRACK 02 AUDIO
    TITLE "Slaybo day"
    PERFORMER "Peter Green"
    INDEX 00 03:48:07
    INDEX 01 03:49:10
  TRACK 03 AUDIO
    TITLE "Apostle"
    PERFORMER "Peter Green"
    INDEX 00 08:54:40
    INDEX 01 08:55:30
  TRACK 04 AUDIO
    TITLE "Loser two times"
    PERFORMER "Peter Green"
    INDEX 00 12:05:72
    INDEX 01 12:07:27
  TRACK 05 AUDIO
    TITLE "Baby when the sun goes down"
    PERFORMER "Peter Green"
    INDEX 00 16:37:47
    INDEX 01 16:38:72
  TRACK 06 AUDIO
    TITLE "One woman love"
    PERFORMER "Peter Green"
    INDEX 00 22:14:25
    INDEX 01 22:14:72
  TRACK 07 AUDIO
    TITLE "Time for me to go"
    PERFORMER "Peter Green"
    INDEX 00 27:45:67
    INDEX 01 27:47:27
  TRACK 08 AUDIO
    TITLE "The clown"
    PERFORMER "Peter Green"
    INDEX 00 31:40:15
    INDEX 01 31:42:05
  TRACK 09 AUDIO
    TITLE "Proud pinto"
    PERFORMER "Peter Green"
    INDEX 00 37:44:35
    INDEX 01 37:46:07
  TRACK 10 AUDIO
    TITLE "Bullet in the sky"
    PERFORMER "Peter Green"
    INDEX 00 41:26:55
    INDEX 01 41:28:52
  TRACK 11 AUDIO
    TITLE "Last train to San Antone"
    PERFORMER "Peter Green"
    INDEX 00 44:50:47
    INDEX 01 44:52:20
  TRACK 12 AUDIO
    TITLE "Watcha gonna do"
    PERFORMER "Peter Green"
    INDEX 00 50:24:07
    INDEX 01 50:25:12
  TRACK 13 AUDIO
    TITLE "Woman don't"
    PERFORMER "Peter Green"
    INDEX 00 54:14:57
    INDEX 01 54:15:30
  TRACK 14 AUDIO
    TITLE "Bandit"
    PERFORMER "Peter Green"
    INDEX 00 59:17:67
    INDEX 01 59:18:62

Этот торрент недоступен для скачивания без регистрации, однако доступен по публичной magnet-ссылке (источники с публичных трекеров). Перед использованием ссылки прочтите, пожалуйста Пользовательское соглашение, а также как можно дольше оставайтесь на раздаче! Для того, чтобы скачать сам торрент-файл (который видит больше источников), а также для того, чтобы поблагодарить релизера, вам необходимо зарегистрироваться. Если регистрироваться лень - вы можете также попробовать скачать релиз по нашим партнерским ссылкам ниже. Кроме того, зарегистрированным пользователям не показывается всплывающая реклама при скачивании.

[underverse.me].t97137.torrent
Трекер: Зарегистрирован   [ 18.02.2018 15:00 ]  

Статус: проверено (by Бишеп at 18.02.2018 15:00)
Поблагодарили: пока никто не поблагодарил...
Тип торрента: публичный - доступные источники с открытых трекеров: 
Размер: 344 MB (занимает 0,08 DVDR, для записи нужно 1 болванка DVDR/RW)
 
 

Яндекс.Метрика powered by Sphinx


В Н И М А Н И Е
Сайт не распространяет и не хранит электронные версии произведений, а лишь бесплатно и без коммерческой выгоды (не требуя взамен платы,
SMS и т.д.) предоставляет доступ к создаваемому пользователями каталогу ссылок на торрент-файлы, которые содержат только списки хеш-сумм.
Убедительная просьба с жалобами обращаться напрямую к пользователю, разместившему торрент файл.

Вверх