Loading...
Error

(Blues, Soft Rock) Chris Rea - The Blue Jukebox (Japan) (2004) [FLAC (Image+.cue), Lossless]

Статистика раздачи
Размер:  499 MB   |    Зарегистрирован:  4 месяца 3 дня   |    Скачан:  4 раза

Полного источника не было: 4 часа

Сидов:  0  |  0 KB/s  ]   Личеров:  0  |  0 KB/s  ]

* - сиды/пиры с внешних источников

   
 
Автор Сообщение

Бишеп Пол:Муж

18-Фев-2018 15:22

Chris Rea - The Blue Jukebox

Жанр: Blues, Soft Rock
Год выпуска: 2004
Источник: CD
Производитель диска: Victor - VICP-62638
Аудиокодек: FLAC
Тип рипа: Image+.CUE
Битрейт аудио: lossless
Продолжительность: 01:06:32


Треклист:
01. The Beat Goes On
02. Long Is The Time, Hard Is The Road
03. Let's Do It
04. Let It Roll
05. Steel River Blues
06. Somebody Say Amen
07. Blue Street
08. Monday Morning
09. Restless Soul
10. What Kind Of Love Is This
11. Paint My Jukebox Blue
12. Baby Don't Cry
13. Speed

Код:

Exact Audio Copy V1.0 beta 3 from 29. August 2011

Отчёт EAC об извлечении, выполненном 25. мая 2017, 9:54

Chris Rea / The Blue Jukebox

Дисковод: PLEXTOR DVDR   PX-755A   Adapter: 0  ID: 0

Режим чтения                 : Достоверность
Использование точного потока : Да
Отключение кэша аудио        : Да
Использование указателей C2  : Нет

Коррекция смещения при чтении                     : 30
Способность читать области Lead-in и Lead-out     : Нет
Заполнение пропущенных сэмплов тишиной            : Да
Удаление блоков с тишиной в начале и конце        : Нет
При вычислениях CRC использовались нулевые сэмплы : Да
Интерфейс                                         : Установленный внешний ASPI-интерфейс

Выходной формат          : Пользовательский кодировщик
Выбранный битрейт        : 1024 kBit/s
Качество                 : Высокий
Добавление ID3-тега      : Нет
Утилита сжатия           : C:\Program Files (x86)\Exact Audio Copy\Flac\flac.exe
Дополнительные параметры : -V -8 -T "Date=%year%" -T "Genre=%genre%" %source%

TOC извлечённого CD

     Трек |   Старт  | Длительность | Начальный сектор | Конечный сектор
    ---------------------------------------------------------------------
       1  |  0:00.00 |    4:32.22   |           0      |      20421     
       2  |  4:32.22 |    5:17.43   |       20422      |      44239     
       3  |  9:49.65 |    5:02.07   |       44240      |      66896     
       4  | 14:51.72 |    4:59.43   |       66897      |      89364     
       5  | 19:51.40 |    4:34.47   |       89365      |     109961     
       6  | 24:26.12 |    6:11.53   |      109962      |     137839     
       7  | 30:37.65 |    4:48.67   |      137840      |     159506     
       8  | 35:26.57 |    4:05.13   |      159507      |     177894     
       9  | 39:31.70 |    5:51.42   |      177895      |     204261     
      10  | 45:23.37 |    6:37.38   |      204262      |     234074     
      11  | 52:01.00 |    4:01.40   |      234075      |     252189     
      12  | 56:02.40 |    5:23.55   |      252190      |     276469     
      13  | 61:26.20 |    5:05.72   |      276470      |     299416     
      14  | 69:04.17 |    4:53.58   |      310817      |     332849     

Характеристики диапазона извлечения и сообщения об ошибках

Выбранный диапазон

     Имя файла E:\РАЗДАЧА\Chris Rea - The Blue Jukebox [Japan]\Chris Rea - The Blue Jukebox.wav

     Пиковый уровень 100.0 %
     Скорость извлечения 8.8 X
     Качество диапазона 100.0 %
     CRC теста 83BE4FB3
     CRC копии 83BE4FB3
     Копирование... OK

Ошибок не произошло

 
AccurateRip: сводка
 
Трек  1  : извлечено точно (доверие 1)  [409A7460]  (AR v2)
Трек  2  : извлечено точно (доверие 1)  [A4FCB067]  (AR v2)
Трек  3  : извлечено точно (доверие 1)  [7076D1FA]  (AR v2)
Трек  4  : извлечено точно (доверие 1)  [08DEB40A]  (AR v2)
Трек  5  : извлечено точно (доверие 1)  [588763C5]  (AR v2)
Трек  6  : извлечено точно (доверие 1)  [72B184D2]  (AR v2)
Трек  7  : извлечено точно (доверие 1)  [A1E19879]  (AR v2)
Трек  8  : извлечено точно (доверие 1)  [5E5A2D24]  (AR v2)
Трек  9  : извлечено точно (доверие 1)  [BBA923E4]  (AR v2)
Трек 10  : извлечено точно (доверие 1)  [C3FCB831]  (AR v2)
Трек 11  : извлечено точно (доверие 1)  [8DA1B5A9]  (AR v2)
Трек 12  : извлечено точно (доверие 1)  [3DF941E1]  (AR v2)
Трек 13  : извлечено точно (доверие 1)  [A1400C17]  (AR v2)
 
Все треки извлечены точно

Конец отчёта

==== Контрольная сумма отчёта 71ED5D7FD6F3DBBBB54CD3D7B1AD0758DABDC4810C4A71EAE062E719C9BF588C ====

Код:

REM GENRE Folk
REM DATE 2004
REM DISCID D511560E
REM COMMENT "ExactAudioCopy v1.0b3"
PERFORMER "Chris Rea"
TITLE "The Blue Jukebox"
FILE "Chris Rea - The Blue Jukebox.flac" WAVE
  TRACK 01 AUDIO
    TITLE "The Beat Goes On"
    PERFORMER "Chris Rea"
    INDEX 01 00:00:00
  TRACK 02 AUDIO
    TITLE "Long Is The Time, Hard Is The Road"
    PERFORMER "Chris Rea"
    INDEX 00 04:31:00
    INDEX 01 04:32:22
  TRACK 03 AUDIO
    TITLE "Let's Do It"
    PERFORMER "Chris Rea"
    INDEX 00 09:48:50
    INDEX 01 09:49:65
  TRACK 04 AUDIO
    TITLE "Let It Roll"
    PERFORMER "Chris Rea"
    INDEX 00 14:51:25
    INDEX 01 14:51:72
  TRACK 05 AUDIO
    TITLE "Steel River Blues"
    PERFORMER "Chris Rea"
    INDEX 00 19:51:02
    INDEX 01 19:51:40
  TRACK 06 AUDIO
    TITLE "Somebody Say Amen"
    PERFORMER "Chris Rea"
    INDEX 00 24:25:42
    INDEX 01 24:26:12
  TRACK 07 AUDIO
    TITLE "Blue Street"
    PERFORMER "Chris Rea"
    INDEX 00 30:36:65
    INDEX 01 30:37:65
  TRACK 08 AUDIO
    TITLE "Monday Morning"
    PERFORMER "Chris Rea"
    INDEX 00 35:25:72
    INDEX 01 35:26:57
  TRACK 09 AUDIO
    TITLE "Restless Soul"
    PERFORMER "Chris Rea"
    INDEX 00 39:30:65
    INDEX 01 39:31:70
  TRACK 10 AUDIO
    TITLE "What Kind Of Love Is This"
    PERFORMER "Chris Rea"
    INDEX 00 45:23:30
    INDEX 01 45:23:37
  TRACK 11 AUDIO
    TITLE "Paint My Jukebox Blue"
    PERFORMER "Chris Rea"
    INDEX 00 52:00:65
    INDEX 01 52:01:00
  TRACK 12 AUDIO
    TITLE "Baby Don't Cry"
    PERFORMER "Chris Rea"
    INDEX 00 56:01:42
    INDEX 01 56:02:40
  TRACK 13 AUDIO
    TITLE "Speed"
    PERFORMER "Chris Rea"
    INDEX 00 61:26:05
    INDEX 01 61:26:20

Этот торрент недоступен для скачивания без регистрации, однако доступен по публичной magnet-ссылке (источники с публичных трекеров). Перед использованием ссылки прочтите, пожалуйста Пользовательское соглашение, а также как можно дольше оставайтесь на раздаче! Для того, чтобы скачать сам торрент-файл (который видит больше источников), а также для того, чтобы поблагодарить релизера, вам необходимо зарегистрироваться. Если регистрироваться лень - вы можете также попробовать скачать релиз по нашим партнерским ссылкам ниже. Кроме того, зарегистрированным пользователям не показывается всплывающая реклама при скачивании.

[underverse.me].t97142.torrent
Трекер: Зарегистрирован   [ 18.02.2018 15:22 ]  

Статус: проверено (by Бишеп at 18.02.2018 15:22)
Поблагодарили: 1 человек
Тип торрента: публичный - доступные источники с открытых трекеров: 
Размер: 499 MB (занимает 0,11 DVDR, для записи нужно 1 болванка DVDR/RW)
 
 
Похожие темы
Форум Тема Автор Торрент Отв. Посл. сооб.
Зарубежная Pop Музыка (Blues, Soul) Ike & Tina Turner - The Blues (2013) [MP3, 320 kbps] 90ytr90
2 | 1

0 | 759

3

07.03.2015 16:05

Blues (Blues, Soul, Rock) James Hunter - The Hard Way (2008) [MP3, 224 kbps VBR] streetkrc
1 | 0

1 | 2825

6

24.04.2013 17:20

Blues (Blues, Soul) Willie Clayton - Crossroad Of The Blues (2017) [MP3, 320 kbps CBR] Darkferse
3 | 1

0 | 417

3

08.06.2017 08:49

Blues (Blues, Soul, Americana) Chastity Brown - Silhouette Of Sirens (2017) [MP3, 320 kbps CBR] Darkferse
1 | 0

0 | 502

2

19.05.2017 09:10

Blues (Blues, Soul) Tre Williams - Chocolate Soul (2017) [MP3, 320 kbps CBR] Darkferse
2 | 0

0 | 362

2

05.06.2017 09:26

Blues (Blues, Southern Soul) Ms Jody - Коллекция (2014-2017) [MP3, 320 kbps CBR] Darkferse
2 | 0

0 | 367

3

02.09.2017 10:02

Blues (Blues, Soul, Jazzy Blues) Stew Cutler & Friends - Every Sunday Night (2017) [MP3, 320 kbps CBR] Darkferse
3 | 0

0 | 569

1

18.09.2017 11:05

Blues (Blues, Soul) Chris Pierce - You've Got To Feel It! (2017) [MP3, 320 kbps CBR] Darkferse
1 | 0

0 | 540

1

18.09.2017 12:46

Blues (Blues, Soul) Pam Tate & Her Men In Blues - Gonna Get It Right (2018) [MP3, 320 kbps CBR] Darkferse
9 | 0

0 | 122

4

06.05.2018 04:57

Blues (Blues, Soul) Jillian Holt - Wishful Thinking (2018) [MP3, 320 kbps CBR] Darkferse
3 | 1

0 | 138

2

06.05.2018 05:47


Яндекс.Метрика powered by Sphinx


В Н И М А Н И Е
Сайт не распространяет и не хранит электронные версии произведений, а лишь бесплатно и без коммерческой выгоды (не требуя взамен платы,
SMS и т.д.) предоставляет доступ к создаваемому пользователями каталогу ссылок на торрент-файлы, которые содержат только списки хеш-сумм.
Убедительная просьба с жалобами обращаться напрямую к пользователю, разместившему торрент файл.

Вверх