Loading...
Error

Обет молчания / Acts of Vengeance (Айзек Флорентайн / Isaac Florentine) [2017 г., боевик, драма, BDRemux 1080p] [US Transfer] Dub + Original (Eng) + Sub (Rus, Eng)

Статистика раздачи
Размер:  18,65 GB   |    Зарегистрирован:  4 месяца 4 дня   |    Скачан:  0 раз

Полного источника не было: Никогда

Сидов:  0  |  0 KB/s  ]   Личеров:  0  |  0 KB/s  ]

* - сиды/пиры с внешних источников

   
 
Автор Сообщение

90ytr90 

20-Фев-2018 03:40

Обет молчания / Acts of Vengeance
«Дела красноречивее слов»

Страна: США, Болгария
Год выпуска: 2017
Жанр: боевик, драма
Продолжительность: 01:27:20
Озвучивание:
  • профессиональное (полное дублирование) [лицензия]
  • оригинальная звуковая дорожка [английский]

Режиссёр: Айзек Флорентайн / Isaac Florentine

В ролях: Антонио Бандерас, Пас Вега, Карл Урбан, Кристина Серафини, Атанас Сребрев, Эрик Али, Лиллиэн Бланкеншип, Оуэн Дэвис


Сюжет фильма:
Успешный адвокат и счастливый семьянин Фрэнк в один миг теряет жену и дочь. Произошло жестокое убийство, но расследование не продвинулось ни на шаг. Теперь у юриста в жизни одна цель: найти настоящих убийц. Он начинает собственное расследование. Взяв правосудие в свои руки, он клянётся, что не произнесёт ни слова до тех пор, пока не отомстит за семью...

  • Дата мировой премьеры: 27 октября 2017
  • Дата российской премьеры: 23 ноября 2017, «MEGOGO Distribution»
             
Качество видео: BDRemux 1080p
Формат: MKV
Видео: AVC, 1920x1080 (16:9), 21.9 Mbps, 23.976 (24000/1001) fps, 0.440 bit/pixel
Аудио #1: DTS-HD MA, 4208 kbps/1509 kbps, 6 ch, 48 kHz, Dub [лицензия]
Аудио #2: AC3, 640 kbps, 6 ch, 48 kHz, Dub [лицензия]
Аудио #3: DTS-HD MA, 3840 kbps/1509 kbps, Original [English]
Субтитры: Russian (full), English (full)
Навигация по главам: есть (16)

Rip by СелезеньS

General
Unique ID : 122340162080833415862943947647265098137 (0x5C09DBB010447949CF97A179B2E54999)
Complete name : C:Video111Acts.of.Vengeance.2017.Lic.BDREMUX.1080p.ExKinoRay.mkv
Format : Matroska
Format version : Version 4 / Version 2
File size : 18.7 GiB
Duration : 1 h 27 min
Overall bit rate mode : Variable
Overall bit rate : 30.6 Mb/s
Movie name : Acts of Vengeance (2017) from ExKinoRay
Encoded date : UTC 2018-02-20 01:23:50
Writing application : mkvmerge v20.0.0 ('I Am The Sun') 64-bit
Writing library : libebml v1.3.5 + libmatroska v1.4.8

Video
ID : 1
Format : AVC
Format/Info : Advanced Video Codec
Format profile : High@L4.1
Format settings : CABAC / 4 Ref Frames
Format settings, CABAC : Yes
Format settings, ReFrames : 4 frames
Format settings, GOP : M=3, N=12
Codec ID : V_MPEG4/ISO/AVC
Duration : 1 h 27 min
Bit rate mode : Variable
Bit rate : 21.9 Mb/s
Maximum bit rate : 35.0 Mb/s
Width : 1 920 pixels
Height : 1 080 pixels
Display aspect ratio : 16:9
Frame rate mode : Constant
Frame rate : 23.976 (24000/1001) FPS
Color space : YUV
Chroma subsampling : 4:2:0
Bit depth : 8 bits
Scan type : Progressive
Bits/(Pixel*Frame) : 0.440
Stream size : 13.3 GiB (72%)
Language : English
Default : Yes
Forced : No

Audio #1
ID : 2
Format : DTS
Format/Info : Digital Theater Systems
Format profile : MA / Core
Codec ID : A_DTS
Duration : 1 h 27 min
Bit rate mode : Variable / Constant
Bit rate : 4 208 kb/s / 1 509 kb/s
Channel(s) : 6 channels
Channel positions : Front: L C R, Side: L R, LFE
Sampling rate : 48.0 kHz
Frame rate : 93.750 FPS (512 SPF)
Bit depth : 24 bits
Compression mode : Lossless / Lossy
Stream size : 2.56 GiB (14%)
Title : Dub [License]
Language : Russian
Default : Yes
Forced : No

Audio #2
ID : 3
Format : AC-3
Format/Info : Audio Coding 3
Codec ID : A_AC3
Duration : 1 h 27 min
Bit rate mode : Constant
Bit rate : 640 kb/s
Channel(s) : 6 channels
Channel positions : Front: L C R, Side: L R, LFE
Sampling rate : 48.0 kHz
Frame rate : 31.250 FPS (1536 SPF)
Bit depth : 16 bits
Compression mode : Lossy
Stream size : 399 MiB (2%)
Title : Dub [License]
Language : Russian
Service kind : Complete Main
Default : No
Forced : No

Audio #3
ID : 4
Format : DTS
Format/Info : Digital Theater Systems
Format profile : MA / Core
Codec ID : A_DTS
Duration : 1 h 27 min
Bit rate mode : Variable / Constant
Bit rate : 3 840 kb/s / 1 509 kb/s
Channel(s) : 6 channels
Channel positions : Front: L C R, Side: L R, LFE
Sampling rate : 48.0 kHz
Frame rate : 93.750 FPS (512 SPF)
Bit depth : 24 bits
Compression mode : Lossless / Lossy
Stream size : 2.35 GiB (13%)
Title : Original
Language : English
Default : No
Forced : No

Text #1
ID : 5
Format : UTF-8
Codec ID : S_TEXT/UTF8
Codec ID/Info : UTF-8 Plain Text
Duration : 1 h 26 min
Bit rate : 46 b/s
Count of elements : 551
Stream size : 29.6 KiB (0%)
Title : Full
Language : Russian
Default : No
Forced : No

Text #2
ID : 6
Format : UTF-8
Codec ID : S_TEXT/UTF8
Codec ID/Info : UTF-8 Plain Text
Duration : 1 h 20 min
Bit rate : 27 b/s
Count of elements : 454
Stream size : 16.4 KiB (0%)
Title : Full
Language : English
Default : No
Forced : No

Menu
00:00:00.000 : en:00:00:00.000
00:05:16.316 : en:00:05:16.316
00:11:00.451 : en:00:11:00.451
00:17:49.318 : en:00:17:49.318
00:24:11.450 : en:00:24:11.450
00:29:07.037 : en:00:29:07.037
00:35:14.612 : en:00:35:14.612
00:39:12.308 : en:00:39:12.308
00:46:29.286 : en:00:46:29.286
00:52:56.590 : en:00:52:56.590
01:00:37.634 : en:01:00:37.634
01:05:28.091 : en:01:05:28.091
01:09:15.902 : en:01:09:15.902
01:13:51.969 : en:01:13:51.969
01:21:32.554 : en:01:21:32.554
01:23:56.031 : en:01:23:56.031


pic pic pic
Для увеличения картинки щелкните мышкой по превью



pic pic pic pic pic

Этот торрент недоступен для скачивания без регистрации, однако доступен по публичной magnet-ссылке (источники с публичных трекеров). Перед использованием ссылки прочтите, пожалуйста Пользовательское соглашение, а также как можно дольше оставайтесь на раздаче! Для того, чтобы скачать сам торрент-файл (который видит больше источников), а также для того, чтобы поблагодарить релизера, вам необходимо зарегистрироваться. Если регистрироваться лень - вы можете также попробовать скачать релиз по нашим партнерским ссылкам ниже. Кроме того, зарегистрированным пользователям не показывается всплывающая реклама при скачивании.

[underverse.me].t97317.torrent
Трекер: Зарегистрирован   [ 20.02.2018 03:40 ]  

Статус: проверено (by 90ytr90 at 20.02.2018 19:08)
Поблагодарили: пока никто не поблагодарил...
Тип торрента: публичный - доступные источники с открытых трекеров: 
Размер: 18,65 GB (занимает 4,26 DVDR, для записи нужно 5 болванок DVDR/RW)
 
 
Похожие темы
Форум Тема Автор Торрент Отв. Посл. сооб.
Зарубежное кино [DVDRip, Low-Res HDRip, и т.д.] Обет молчания / Le Pacte Du Silence (Грэм Гит / Graham Guit) [2003 г., детектив, мистика, триллер, DVDRip] MVO Доктор Ватсон
1 | 0

0 | 1287

11

02.03.2013 07:48

T Зарубежное кино [DVDRip, Low-Res HDRip, и т.д.] Обет молчания / Acts of Vengeance (Айзек Флорентайн) [2017 г., боевик, драма, WEB-DLRip] MVO (@MUZOBOZ@) makkol
6 | 0

0 | 1313

25

28.10.2017 13:57

Зарубежное кино [DVDRip, Low-Res HDRip, и т.д.] Обет молчания / Acts of Vengeance (Айзек Флорентайн / Isaac Florentine) [2017 г., боевик, драма, BDRip-AVC] DVO (RecentFilms) + Original (Eng) 90ytr90
2 | 0

0 | 662

12

18.11.2017 17:14

Зарубежное кино [DVDRip, Low-Res HDRip, и т.д.] Обет молчания / Acts of Vengeance (Айзек Флорентайн / Isaac Florentine) [2017 г., боевик, драма, BDRip] Dub 90ytr90
21 | 0

0 | 459

6

20.02.2018 03:01

Зарубежное кино [DVDRip, Low-Res HDRip, и т.д.] Обет молчания / Acts of Vengeance (Айзек Флорентайн / Isaac Florentine) [2017 г., боевик, драма, HDRip] Dub 90ytr90
5 | 0

0 | 694

6

20.02.2018 19:45

Зарубежное кино [DVD / HDDVD / BD / Remux] Обет молчания / Acts of Vengeance (Айзек Флорентайн / Isaac Florentine) [2017 г., боевик, драма, BD 1080p] [RUS Transfer] Dub 90ytr90
6 | 0

0 | 476

1

24.02.2018 17:27

T Зарубежное кино [HDDVDRip / BDRip / WEB-DL / HDTV 1080/720р] Обет молчания / Acts of Vengeance (Айзек Флорентайн) [2017 г., боевик, драма, WEB-DL 720p] MVO (@MUZOBOZ@) makkol
1 | 0

0 | 995

9

28.10.2017 14:03

T Зарубежное кино [HDDVDRip / BDRip / WEB-DL / HDTV 1080/720р] Обет молчания / Acts of Vengeance (Айзек Флорентайн) [2017 г., боевик, драма, WEB-DL 1080p] MVO (@MUZOBOZ@) makkol
0 | 0

0 | 1151

14

28.10.2017 14:08

Зарубежное кино [HDDVDRip / BDRip / WEB-DL / HDTV 1080/720р] Обет молчания / Acts of Vengeance (Айзек Флорентайн / Isaac Florentine) [2017 г., боевик, драма, BDRip 720p] DVO (RecentFilms) + Original (Eng) + Sub (Eng) 90ytr90
5 | 0

0 | 1276

12

17.11.2017 19:55

Зарубежное кино [HDDVDRip / BDRip / WEB-DL / HDTV 1080/720р] Обет молчания / Acts of Vengeance (Айзек Флорентайн / Isaac Florentine) [2017 г., боевик, драма, BDRip 1080p] DVO (RecentFilms) + Original (Eng) + Sub (Eng) 90ytr90
5 | 0

0 | 1275

13

17.11.2017 19:58


Яндекс.Метрика powered by Sphinx


В Н И М А Н И Е
Сайт не распространяет и не хранит электронные версии произведений, а лишь бесплатно и без коммерческой выгоды (не требуя взамен платы,
SMS и т.д.) предоставляет доступ к создаваемому пользователями каталогу ссылок на торрент-файлы, которые содержат только списки хеш-сумм.
Убедительная просьба с жалобами обращаться напрямую к пользователю, разместившему торрент файл.

Вверх