Loading...
Error

Здравствуй, папа, Новый год! 2 / Daddy's Home 2 (Шон Андерс / Sean Anders) [2017 г., комедия, BDRemux 1080p] Dub + Original (Eng) + Sub (Rus, Eng)

Статистика раздачи
Размер:  23,52 GB   |    Зарегистрирован:  3 месяца 27 дней   |    Скачан:  1 раз

Полного источника не было: 3 месяца 25 дней

Сидов:  0  |  0 KB/s  ]   Личеров:  0  |  0 KB/s  ]

* - сиды/пиры с внешних источников

   
 
Автор Сообщение

90ytr90 

21-Фев-2018 02:52

Здравствуй, папа, Новый год! 2 / Daddy's Home 2
«Чем больше папаш, тем больше проблем»

Страна: США
Год выпуска: 2017
Жанр: комедия
Продолжительность: 01:39:42
Озвучивание:
  • профессиональное (полное дублирование) [лицензия]
  • оригинальная звуковая дорожка [английский]

Режиссёр: Шон Андерс / Sean Anders

В ролях: Уилл Феррелл (Brad), Марк Уолберг (Dusty), Мэл Гибсон (Kurt), Джон Литгоу (Don), Линда Карделлини (Sara), Алессандра Амброзио (Karen), Оуэн Ваккаро (Dylan), Скарлет Эстевез (Megan), Диди Костин (Adrianna), Коннор Уайз (Griffy), Дафна Уайз (Griffy), Дилан Уайз (Griffy)


Сюжет фильма:
Отец и отчим, Дасти и Брэд, объединяются, чтобы организовать для своих детей идеальный рождественский праздник. Но их с горем пополам достигнутый нейтралитет оказывается под угрозой, когда к внукам приезжают олдскульный мачо-папаша Дасти и чувствительный и эмоциональный папочка Брэда. Они как нельзя кстати, чтобы превратить Рождество в кошмарный хаос.

  • Дата мировой премьеры: 8 ноября 2017
  • Дата российской премьеры: 23 ноября 2017, «Централ Партнершип»
             
Качество видео: BDRemux 1080p
Формат: MKV
Видео: AVC, 1920x1080 (16:9), 27.9 Mbps, 23.976 (24000/1001) fps, 0.560 bit/pixel
Аудио #1: AC3, 640 kbps, 6 ch, 48 kHz, Dub [лицензия]
Аудио #2: TrueHD 7.1, 48 kHz, 4576 kbps , Original [English]
Аудио #3: AC3, 640 kbps, 6 ch, 48 kHz, Original [English]
Субтитры: Russian (forced, full), English (full, SDH, SDH-Colored)
Навигация по главам: есть (14)

Сборка: СелезеньS
General
Unique ID : 200878861737284374286932766959130431224 (0x971FDC8B5B81D77EC4CD0AFF7CA8CEF8)
Complete name : C:\Video111Daddys.Home.2.2017.Lic.BDREMUX.1080p.ExKinoRay.mkv
Format : Matroska
Format version : Version 4 / Version 2
File size : 23.5 GiB
Duration : 1 h 39 min
Overall bit rate mode : Variable
Overall bit rate : 33.8 Mb/s
Movie name : Daddys Home 2 from ExKinoRay
Encoded date : UTC 2018-02-21 01:12:06
Writing application : mkvmerge v20.0.0 ('I Am The Sun') 64-bit
Writing library : libebml v1.3.5 + libmatroska v1.4.8

Video
ID : 1
Format : AVC
Format/Info : Advanced Video Codec
Format profile : High@L4.1
Format settings : CABAC / 4 Ref Frames
Format settings, CABAC : Yes
Format settings, ReFrames : 4 frames
Codec ID : V_MPEG4/ISO/AVC
Duration : 1 h 39 min
Bit rate mode : Variable
Bit rate : 27.9 Mb/s
Maximum bit rate : 29.5 Mb/s
Width : 1 920 pixels
Height : 1 080 pixels
Display aspect ratio : 16:9
Frame rate mode : Constant
Frame rate : 23.976 (24000/1001) FPS
Color space : YUV
Chroma subsampling : 4:2:0
Bit depth : 8 bits
Scan type : Progressive
Bits/(Pixel*Frame) : 0.560
Stream size : 19.4 GiB (82%)
Language : English
Default : Yes
Forced : No

Audio #1
ID : 2
Format : AC-3
Format/Info : Audio Coding 3
Codec ID : A_AC3
Duration : 1 h 39 min
Bit rate mode : Constant
Bit rate : 640 kb/s
Channel(s) : 6 channels
Channel positions : Front: L C R, Side: L R, LFE
Sampling rate : 48.0 kHz
Frame rate : 31.250 FPS (1536 SPF)
Bit depth : 16 bits
Compression mode : Lossy
Stream size : 456 MiB (2%)
Title : Dub [License]
Language : Russian
Service kind : Complete Main
Default : Yes
Forced : No

Audio #2
ID : 3
Format : TrueHD
Format profile : TrueHD+Atmos / TrueHD
Codec ID : A_TRUEHD
Duration : 1 h 39 min
Bit rate mode : Variable
Bit rate : 4 576 kb/s
Maximum bit rate : 7 641 kb/s
Channel(s) : Object Based / 8 channels
Channel positions : Object Based / Front: L C R, Side: L R, Back: L R, LFE
Sampling rate : / 48.0 kHz
Frame rate : 1 200.000 FPS (40 SPF)
Compression mode : Lossless
Stream size : 3.19 GiB (14%)
Title : Original
Language : English
Default : No
Forced : No

Audio #3
ID : 4
Format : AC-3
Format/Info : Audio Coding 3
Codec ID : A_AC3
Duration : 1 h 39 min
Bit rate mode : Constant
Bit rate : 640 kb/s
Channel(s) : 6 channels
Channel positions : Front: L C R, Side: L R, LFE
Sampling rate : 48.0 kHz
Frame rate : 31.250 FPS (1536 SPF)
Bit depth : 16 bits
Compression mode : Lossy
Stream size : 456 MiB (2%)
Language : English
Service kind : Complete Main
Default : No
Forced : No

Text #1
ID : 5
Format : UTF-8
Codec ID : S_TEXT/UTF8
Codec ID/Info : UTF-8 Plain Text
Duration : 1 h 38 min
Bit rate : 1 b/s
Count of elements : 19
Stream size : 928 Bytes (0%)
Title : Forced
Language : Russian
Default : Yes
Forced : No

Text #2
ID : 6
Format : UTF-8
Codec ID : S_TEXT/UTF8
Codec ID/Info : UTF-8 Plain Text
Duration : 1 h 38 min
Bit rate : 136 b/s
Count of elements : 1650
Stream size : 98.4 KiB (0%)
Title : Full
Language : Russian
Default : No
Forced : No

Text #3
ID : 7
Format : UTF-8
Codec ID : S_TEXT/UTF8
Codec ID/Info : UTF-8 Plain Text
Duration : 1 h 38 min
Bit rate : 101 b/s
Count of elements : 2337
Stream size : 72.7 KiB (0%)
Title : Full
Language : English
Default : No
Forced : No

Text #4
ID : 8
Format : UTF-8
Codec ID : S_TEXT/UTF8
Codec ID/Info : UTF-8 Plain Text
Duration : 1 h 38 min
Bit rate : 106 b/s
Count of elements : 2260
Stream size : 77.1 KiB (0%)
Title : SDH
Language : English
Default : No
Forced : No

Text #5
ID : 9
Format : UTF-8
Codec ID : S_TEXT/UTF8
Codec ID/Info : UTF-8 Plain Text
Duration : 1 h 38 min
Bit rate : 139 b/s
Count of elements : 2260
Stream size : 101 KiB (0%)
Title : SDH Colored
Language : English
Default : No
Forced : No

Menu
00:00:00.000 : en:Chapter 1
00:08:08.529 : en:Chapter 2
00:16:08.092 : en:Chapter 3
00:21:44.052 : en:Chapter 4
00:27:40.158 : en:Chapter 5
00:32:47.423 : en:Chapter 6
00:40:49.029 : en:Chapter 7
00:47:57.165 : en:Chapter 8
00:52:27.894 : en:Chapter 9
01:00:08.730 : en:Chapter 10
01:08:37.363 : en:Chapter 11
01:15:23.101 : en:Chapter 12
01:26:24.846 : en:Chapter 13
01:33:34.942 : en:Chapter 14


picpicpicpicpic
Для увеличения картинки щелкните мышкой по превью

Этот торрент недоступен для скачивания без регистрации, однако доступен по публичной magnet-ссылке (источники с публичных трекеров). Перед использованием ссылки прочтите, пожалуйста Пользовательское соглашение, а также как можно дольше оставайтесь на раздаче! Для того, чтобы скачать сам торрент-файл (который видит больше источников), а также для того, чтобы поблагодарить релизера, вам необходимо зарегистрироваться. Если регистрироваться лень - вы можете также попробовать скачать релиз по нашим партнерским ссылкам ниже. Кроме того, зарегистрированным пользователям не показывается всплывающая реклама при скачивании.

[underverse.me].t97465.torrent
Трекер: Зарегистрирован   [ 21.02.2018 02:52 ]  

Статус: проверено (by 90ytr90 at 24.02.2018 16:52)
Поблагодарили: пока никто не поблагодарил...
Тип торрента: публичный - доступные источники с открытых трекеров: 
Размер: 23,52 GB (занимает 5,37 DVDR, для записи нужно 6 болванок DVDR/RW)
 
 
Похожие темы
Форум Тема Автор Торрент Отв. Посл. сооб.
Зарубежное кино [DVDRip, Low-Res HDRip, и т.д.] Здравствуй, папа, Новый год / Daddy's Home (Шон Андерс / Sean Anders) [2015 г., комедия, BDRip-AVC] Dub + Original (Eng) + Sub (Rus, Eng) 90ytr90
43 | 0

0 | 647

17

14.11.2016 15:41

Зарубежное кино [DVDRip, Low-Res HDRip, и т.д.] Здравствуй, папа, Новый год / Daddy's Home (Шон Андерс / Sean Anders) [2015 г., комедия, BDRip-AVC] Dub + Sub (Rus) 90ytr90
59 | 1

0 | 605

15

14.11.2016 15:41

Зарубежное кино [DVDRip, Low-Res HDRip, и т.д.] Здравствуй, папа, Новый год / Daddy's Home (Шон Андерс / Sean Anders) [2015 г., комедия, HDRip] Dub 90ytr90
6 | 1

0 | 611

3

13.11.2016 19:51

T Зарубежное кино [DVDRip, Low-Res HDRip, и т.д.] Здравствуйте, меня зовут Дорис / Hello, My Name Is Doris (Майкл Шоуолтер) [2015 г., драма, мелодрама, комедия, HDRip] MVO (iTunes) makkol
2 | 0

0 | 697

5

12.06.2016 21:59

T Зарубежное кино [DVDRip, Low-Res HDRip, и т.д.] Здравствуйте, меня зовут Дорис / Hello, My Name Is Doris (Майкл Шоуолтер / Michael Showalter) [2015 г., драма, мелодрама, комедия, BDRip-AVC] MVO (iTunes) + Original (Eng) + Sub (Rus, Eng) 90ytr90
1 | 0

0 | 800

4

13.06.2016 15:38

Зарубежное кино [DVDRip, Low-Res HDRip, и т.д.] Здравствуй, папа, Новый год / Daddy's Home (Шон Андерс / Sean Anders) [2015 г., комедия, HDRip] Dub 90ytr90
424 | 6

0 | 1086

12

05.07.2016 18:39

Зарубежное кино [DVDRip, Low-Res HDRip, и т.д.] Здравствуй, папа, Новый год! 2 / Daddy's Home 2 (Шон Андерс / Sean Anders) [2017 г., комедия, BDRip] Dub + Sub (Rus) 90ytr90
804 | 17

0 | 827

7

21.02.2018 02:46

Зарубежное кино [DVDRip, Low-Res HDRip, и т.д.] Здравствуй, папа, Новый год! 2 / Daddy's Home 2 (Шон Андерс / Sean Anders) [2017 г., комедия, BDRip] Dub + Sub (Rus) 90ytr90
7 | 2

0 | 366

2

21.02.2018 04:02

Зарубежное кино [DVDRip, Low-Res HDRip, и т.д.] Здравствуй, папа, Новый год! 2 / Daddy's Home 2 (Шон Андерс / Sean Anders) [2017 г., комедия, BDRip-AVC] Dub + Sub (Rus) 90ytr90
58 | 1

0 | 231

14

21.02.2018 05:53

Зарубежное кино [DVDRip, Low-Res HDRip, и т.д.] Здравствуй, папа, Новый год! 2 / Daddy's Home 2 (Шон Андерс / Sean Anders) [2017 г., комедия, BDRip-AVC] Dub + Original (Eng) + Sub (Rus, Eng) 90ytr90
1 | 0

0 | 379

8

24.02.2018 16:58


Яндекс.Метрика powered by Sphinx


В Н И М А Н И Е
Сайт не распространяет и не хранит электронные версии произведений, а лишь бесплатно и без коммерческой выгоды (не требуя взамен платы,
SMS и т.д.) предоставляет доступ к создаваемому пользователями каталогу ссылок на торрент-файлы, которые содержат только списки хеш-сумм.
Убедительная просьба с жалобами обращаться напрямую к пользователю, разместившему торрент файл.

Вверх