Loading...
Error

(Авторская песня) Игорь Растеряев - Рожок (2014) [FLAC (Tracks+.Cue), Lossless]

Статистика раздачи
Размер:  179 MB   |    Зарегистрирован:  4 месяца 26 дней   |    Скачан:  2 раза

Полного источника не было: 17 дней

Сидов:  0  |  0 KB/s  ]   Личеров:  0  |  0 KB/s  ]

* - сиды/пиры с внешних источников

   
 
Автор Сообщение

Бишеп Пол:Муж

22-Фев-2018 05:00

Игорь Растеряев - Рожок

Жанр: Авторская песня
Год выпуска: 2014
Источник: CD
Производитель диска: Not On Label (.... Self-released)
Аудиокодек: FLAC
Тип рипа: Tracks+.CUE
Битрейт аудио: lossless
Продолжительность: 00:29:34


Треклист:
01. Рожок
02. Дядя Вова Слышкин
03. Ермак
04. Ходики
05. Дальнобойная
06. Кошка Муся
07. Безрукавочка
08. Плясовая
09. Курган

Код:

Exact Audio Copy V1.0 beta 3 from 29. August 2011

EAC extraction logfile from 11. February 2015, 19:38

Игорь Растеряев / Рожок

Used drive  : TSSTcorpCDDVDW SH-224BB   Adapter: 0  ID: 0

Read mode               : Secure
Utilize accurate stream : Yes
Defeat audio cache      : Yes
Make use of C2 pointers : No

Read offset correction                      : 6
Overread into Lead-In and Lead-Out          : Yes
Fill up missing offset samples with silence : Yes
Delete leading and trailing silent blocks   : No
Null samples used in CRC calculations       : Yes
Used interface                              : Native Win32 interface for Win NT & 2000
Gap handling                                : Appended to previous track

Used output format              : User Defined Encoder
Selected bitrate                : 1024 kBit/s
Quality                         : High
Add ID3 tag                     : No
Command line compressor         : C:\Program Files (x86)\Exact Audio Copy\FLAC\FLAC.EXE
Additional command line options : -6 -V -T "ARTIST=%artist%" -T "TITLE=%title%" -T "ALBUM=%albumtitle%" -T "DATE=%year%" -T "TRACKNUMBER=%tracknr%" -T "GENRE=%genre%" -T "COMMENT=%comment%" -T "BAND=%albuminterpret%" -T "ALBUMARTIST=%albuminterpret%" -T "COMPOSER=%composer%" %haslyrics%--tag-from-file=LYRICS="%lyricsfile%"%haslyrics% -T "DISCNUMBER=%cdnumber%" -T "TOTALDISCS=%totalcds%" -T "TOTALTRACKS=%numtracks%" %hascover%--picture="%coverfile%"%hascover% %source% -o %dest%

TOC of the extracted CD

     Track |   Start  |  Length  | Start sector | End sector
    ---------------------------------------------------------
        1  |  0:00.00 |  2:06.05 |         0    |     9454   
        2  |  2:06.05 |  3:36.00 |      9455    |    25654   
        3  |  5:42.05 |  4:47.65 |     25655    |    47244   
        4  | 10:29.70 |  3:08.42 |     47245    |    61386   
        5  | 13:38.37 |  3:26.00 |     61387    |    76836   
        6  | 17:04.37 |  1:39.12 |     76837    |    84273   
        7  | 18:43.49 |  2:23.30 |     84274    |    95028   
        8  | 21:07.04 |  3:56.25 |     95029    |   112753   
        9  | 25:03.29 |  4:30.53 |    112754    |   133056   

Track  1

     Filename D:\Music\Игорь Растеряев\Рожок\01 - Игорь Растеряев - Рожок.wav

     Pre-gap length  0:00:02.00

     Peak level 99.3 %
     Extraction speed 1.6 X
     Track quality 100.0 %
     Test CRC 9DDA7B55
     Copy CRC 9DDA7B55
     Accurately ripped (confidence 1)  [2B19BF66]  (AR v2)
     Copy OK

Track  2

     Filename D:\Music\Игорь Растеряев\Рожок\02 - Игорь Растеряев - Дядя Вова Слышкин.wav

     Peak level 94.0 %
     Extraction speed 1.9 X
     Track quality 100.0 %
     Test CRC EA575F68
     Copy CRC EA575F68
     Accurately ripped (confidence 1)  [DB71FFC3]  (AR v2)
     Copy OK

Track  3

     Filename D:\Music\Игорь Растеряев\Рожок\03 - Игорь Растеряев - Ермак.wav

     Peak level 100.0 %
     Extraction speed 2.1 X
     Track quality 100.0 %
     Test CRC C4CDA741
     Copy CRC C4CDA741
     Accurately ripped (confidence 1)  [6DB5EE6B]  (AR v2)
     Copy OK

Track  4

     Filename D:\Music\Игорь Растеряев\Рожок\04 - Игорь Растеряев - Ходики.wav

     Peak level 99.6 %
     Extraction speed 1.8 X
     Track quality 99.9 %
     Test CRC 9CF701E5
     Copy CRC 9CF701E5
     Accurately ripped (confidence 1)  [102D51C3]  (AR v2)
     Copy OK

Track  5

     Filename D:\Music\Игорь Растеряев\Рожок\05 - Игорь Растеряев - Дальнобойная.wav

     Peak level 99.5 %
     Extraction speed 2.4 X
     Track quality 100.0 %
     Test CRC F9364820
     Copy CRC F9364820
     Accurately ripped (confidence 1)  [0F888097]  (AR v2)
     Copy OK

Track  6

     Filename D:\Music\Игорь Растеряев\Рожок\06 - Игорь Растеряев - Кошка Муся.wav

     Peak level 99.6 %
     Extraction speed 2.1 X
     Track quality 100.0 %
     Test CRC CCA1F2A0
     Copy CRC CCA1F2A0
     Accurately ripped (confidence 1)  [755285E4]  (AR v2)
     Copy OK

Track  7

     Filename D:\Music\Игорь Растеряев\Рожок\07 - Игорь Растеряев - Безрукавочка.wav

     Peak level 100.0 %
     Extraction speed 1.7 X
     Track quality 99.9 %
     Test CRC 718707B2
     Copy CRC 718707B2
     Accurately ripped (confidence 1)  [A65C2CD2]  (AR v2)
     Copy OK

Track  8

     Filename D:\Music\Игорь Растеряев\Рожок\08 - Игорь Растеряев - Плясовая.wav

     Peak level 99.6 %
     Extraction speed 2.7 X
     Track quality 100.0 %
     Test CRC 64BA1457
     Copy CRC 64BA1457
     Accurately ripped (confidence 1)  [E38EA1BB]  (AR v2)
     Copy OK

Track  9

     Filename D:\Music\Игорь Растеряев\Рожок\09 - Игорь Растеряев - Курган.wav

     Peak level 99.7 %
     Extraction speed 2.9 X
     Track quality 100.0 %
     Test CRC 026B7D92
     Copy CRC 026B7D92
     Accurately ripped (confidence 1)  [F05947CF]  (AR v2)
     Copy OK

All tracks accurately ripped

No errors occurred

End of status report

---- CUETools DB Plugin V2.1.3

[CTDB TOCID: O4wtrai05FtcZYHJ_n6cieMJV2w-] found, Submit result: O4wtrai05FtcZYHJ_n6cieMJV2w- has been confirmed
[8f3a96e3] (1/1) Accurately ripped

==== Log checksum 99F84E4ED232732CCD9E851AE58D62CF4622C40B409561DB2E9F5DFAF5604077 ====

Код:

REM GENRE Harmonica
REM DATE 2015
REM DISCID 5B06EE09
REM COMMENT "ExactAudioCopy v1.0b3"
PERFORMER "Игорь Растеряев"
TITLE "Рожок"
FILE "01 - Игорь Растеряев - Рожок.wav" WAVE
  TRACK 01 AUDIO
    TITLE "Рожок"
    PERFORMER "Игорь Растеряев"
    INDEX 01 00:00:00
FILE "02 - Игорь Растеряев - Дядя Вова Слышкин.wav" WAVE
  TRACK 02 AUDIO
    TITLE "Дядя Вова Слышкин"
    PERFORMER "Игорь Растеряев"
    INDEX 01 00:00:00
FILE "03 - Игорь Растеряев - Ермак.wav" WAVE
  TRACK 03 AUDIO
    TITLE "Ермак"
    PERFORMER "Игорь Растеряев"
    INDEX 01 00:00:00
FILE "04 - Игорь Растеряев - Ходики.wav" WAVE
  TRACK 04 AUDIO
    TITLE "Ходики"
    PERFORMER "Игорь Растеряев"
    INDEX 01 00:00:00
FILE "05 - Игорь Растеряев - Дальнобойная.wav" WAVE
  TRACK 05 AUDIO
    TITLE "Дальнобойная"
    PERFORMER "Игорь Растеряев"
    INDEX 01 00:00:00
FILE "06 - Игорь Растеряев - Кошка Муся.wav" WAVE
  TRACK 06 AUDIO
    TITLE "Кошка Муся"
    PERFORMER "Игорь Растеряев"
    INDEX 01 00:00:00
FILE "07 - Игорь Растеряев - Безрукавочка.wav" WAVE
  TRACK 07 AUDIO
    TITLE "Безрукавочка"
    PERFORMER "Игорь Растеряев"
    INDEX 01 00:00:00
FILE "08 - Игорь Растеряев - Плясовая.wav" WAVE
  TRACK 08 AUDIO
    TITLE "Плясовая"
    PERFORMER "Игорь Растеряев"
    INDEX 01 00:00:00
FILE "09 - Игорь Растеряев - Курган.wav" WAVE
  TRACK 09 AUDIO
    TITLE "Курган"
    PERFORMER "Игорь Растеряев"
    INDEX 01 00:00:00

Этот торрент недоступен для скачивания без регистрации, однако доступен по публичной magnet-ссылке (источники с публичных трекеров). Перед использованием ссылки прочтите, пожалуйста Пользовательское соглашение, а также как можно дольше оставайтесь на раздаче! Для того, чтобы скачать сам торрент-файл (который видит больше источников), а также для того, чтобы поблагодарить релизера, вам необходимо зарегистрироваться. Если регистрироваться лень - вы можете также попробовать скачать релиз по нашим партнерским ссылкам ниже. Кроме того, зарегистрированным пользователям не показывается всплывающая реклама при скачивании.

[underverse.me].t97549.torrent
Трекер: Зарегистрирован   [ 22.02.2018 05:00 ]  

Статус: проверено (by Бишеп at 22.02.2018 05:00)
Поблагодарили: пока никто не поблагодарил...
Тип торрента: публичный - доступные источники с открытых трекеров: 
Размер: 179 MB (занимает 0,04 DVDR, для записи нужно 1 болванка DVDR/RW)
 
 
Похожие темы
Форум Тема Автор Торрент Отв. Посл. сооб.
Авторские песни, Барды (Авторская песня) Владимир Высоцкий - Полная коллекция (2009) [MP3, 320 kbps] Добрый жмот
21 | 5

11 | 5870

82

31.07.2013 07:22

Авторские песни, Барды (Авторская песня) Тимур Шаов - О чем молчал Герасим... (2010) [MP3, 320 kbps] KonKoSerg
5 | 0

4 | 2609

26

24.08.2013 06:03

Авторские песни, Барды (Авторская песня) Татьяна и Сергей Никитины - Городок, что я выдумал (2011) [MP3, 320 kbps] KonKoSerg
6 | 1

1 | 2898

40

11.05.2013 10:18

Авторские песни, Барды (Авторская песня) Владимир Высоцкий - Дискография [22 СD] (2001-2007) [MP3, 320 CBR] vovanig
2 | 0

2 | 3510

57

07.08.2014 19:18

Авторские песни, Барды (Авторская песня) Семён Слепаков - Альбом 1 (2012) [MP3, 320 kbps CBR] Бишеп
1 | 0

1 | 2051

53

11.05.2013 07:53

Авторские песни, Барды (Авторская песня, Фолк) Никола Емелин (Емеля) - Дискография (6 альбомов) (1989 - 2011) [MP3, 64-320 kbps] gregsib
14 | 0

1 | 2044

24

05.07.2013 18:48

Авторские песни, Барды (Авторская песня) Вячеслав Мясников (Уральские пельмени) - Сборник песен (2014) [MP3, 128-320 kbps CBR] terra07
1 | 0

1 | 2696

42

09.12.2015 14:37

Авторские песни, Барды (Авторская песня) Владимир Высоцкий - Спасибо, что живой. Песни из кинофильма... - и не только (2012) [MP3, 320 kbps CBR] valera87
3 | 0

0 | 1256

8

14.03.2015 16:31

Авторские песни, Барды (Lossless) (Авторская песня) Владимир Высоцкий - Grand Collection. Часть 1 / Часть 2 (2004) [FLAC (Tracks+.CUE), lossless] garry
1 | 0

1 | 1853

12

21.04.2012 07:06

# Авторские песни, Барды (Lossless) (Авторская песня) Евгений Баранник - На Прорезной (2010) [FLAC (Tracks+.CUE), lossless] garry
1 | 0

0 | 2420

1

20.02.2012 18:25


Яндекс.Метрика powered by Sphinx


В Н И М А Н И Е
Сайт не распространяет и не хранит электронные версии произведений, а лишь бесплатно и без коммерческой выгоды (не требуя взамен платы,
SMS и т.д.) предоставляет доступ к создаваемому пользователями каталогу ссылок на торрент-файлы, которые содержат только списки хеш-сумм.
Убедительная просьба с жалобами обращаться напрямую к пользователю, разместившему торрент файл.

Вверх