Loading...
Error

Тор: Рагнарёк / Thor: Ragnarok (Тайка Вайтити) [2017 г., фантастика, боевик, комедия, приключения, BD-Remux] Dub (iTunes) + Original + Sub

Статистика раздачи
Размер:  26,54 GB   |    Зарегистрирован:  3 месяца 27 дней   |    Скачан:  8 раз

Полного источника не было: 2 дня 14 часов

Сидов:  0  |  0 KB/s  ]   Личеров:  0  |  0 KB/s  ]

* - сиды/пиры с внешних источников

   
 
Автор Сообщение

makkol Пол:Муж

22-Фев-2018 22:18

Тор: Рагнарёк / Thor: Ragnarok


Год выпуска: 2017
Жанр: фантастика, боевик, комедия, приключения
Производство: США [Marvel Entertainment, Marvel Studios, Walt Disney Pictures]
Режиссер: Тайка Вайтити
В ролях: Крис Хемсворт, Том Хиддлстон, Кейт Бланшетт, Идрис Эльба, Джефф Голдблюм, Тесса Томпсон, Карл Урбан, Марк Руффало, Энтони Хопкинс, Бенедикт Камбербэтч
Сюжет фильма:
Вернувшись в Асгард в поисках таинственного врага, ведущего охоту на Камни Бесконечности, Тор обнаруживает, что действия его брата Локи, захватившего трон Асгарда, привели к приближению наиболее страшного события - Рагнарёка. По легенде, это ознаменует последнюю битву Асгарда, последствием которой станет его полное уничтожение. В попытке предотвратить это событие, Тору предстоит прибегнуть к помощи своего товарища из Мстителей - Халка. Вместе, им предстоит столкнуться лицом к лицу со злейшим врагом всех девяти миров - огненным демоном Суртуром, целью которого является исполнение пророчества о Рагнарёке и уничтожение девяти миров.

  • Мировая премьера: 10 октября 2017
  • Российская премьера: 2 ноября 2017


Качество видео: BD-Remux

Продолжительность: 02:10:30
Формат: MKV
Видео: MPEG-4 AVC, 1920x1080 (16:9), 23.976 fps, 23.8 Mbps
Аудио #1: русский, дублированный (iTunes), AC3 5.1, 48 kHz, 384 kbps
Аудио #2: английский, оригинал, DTS-HD MA 7.1, 48 kHz, 4891 kbps
Субтитры: русские (forced, full, SDH), английские вшитые отключаемые

Код:

Format                      : Matroska
Format version              : Version 4 / Version 2
File size                   : 26.5 GiB
Duration                    : 2 h 10 min
Overall bit rate mode       : Variable
Overall bit rate            : 29.1 Mb/s
Encoded date                : UTC 2018-02-22 19:29:06
Writing application         : mkvmerge v20.0.0 ('I Am The Sun') 64-bit
Writing library             : libebml v1.3.5 + libmatroska v1.4.8

Video
ID                          : 1
Format                      : AVC
Format/Info                 : Advanced Video Codec
Format profile              : High@L4.1
Format settings             : CABAC / 4 Ref Frames
Format settings, CABAC      : Yes
Format settings, ReFrames   : 4 frames
Codec ID                    : V_MPEG4/ISO/AVC
Duration                    : 2 h 10 min
Bit rate mode               : Variable
Bit rate                    : 23.8 Mb/s
Maximum bit rate            : 34.0 Mb/s
Width                       : 1 920 pixels
Height                      : 1 080 pixels
Display aspect ratio        : 16:9
Frame rate mode             : Constant
Frame rate                  : 23.976 (24000/1001) FPS
Color space                 : YUV
Chroma subsampling          : 4:2:0
Bit depth                   : 8 bits
Scan type                   : Progressive
Bits/(Pixel*Frame)          : 0.479
Stream size                 : 21.7 GiB (82%)
Language                    : English
Default                     : Yes
Forced                      : No

Audio #1
ID                          : 2
Format                      : AC-3
Format/Info                 : Audio Coding 3
Codec ID                    : A_AC3
Duration                    : 2 h 10 min
Bit rate mode               : Constant
Bit rate                    : 384 kb/s
Channel(s)                  : 6 channels
Channel positions           : Front: L C R, Side: L R, LFE
Sampling rate               : 48.0 kHz
Frame rate                  : 31.250 FPS (1536 SPF)
Bit depth                   : 16 bits
Compression mode            : Lossy
Stream size                 : 359 MiB (1%)
Title                       : iTunes
Language                    : Russian
Service kind                : Complete Main
Default                     : Yes
Forced                      : No

Audio #2
ID                          : 3
Format                      : DTS
Format/Info                 : Digital Theater Systems
Format profile              : MA / Core
Codec ID                    : A_DTS
Duration                    : 2 h 10 min
Bit rate mode               : Variable / Constant
Bit rate                    : 4 891 kb/s / 1 509 kb/s
Channel(s)                  : 8 channels / 6 channels
Channel positions           : Front: L C R, Side: L R, Back: L R, LFE / Front: L C R, Side: L R, LFE
Sampling rate               : 48.0 kHz
Frame rate                  : 93.750 FPS (512 SPF)
Bit depth                   : 24 bits
Compression mode            : Lossless / Lossy
Stream size                 : 4.46 GiB (17%)
Title                       : Original
Language                    : English
Default                     : No
Forced                      : No

Text #1
ID                          : 4
Format                      : UTF-8
Codec ID                    : S_TEXT/UTF8
Codec ID/Info               : UTF-8 Plain Text
Duration                    : 1 h 56 min
Bit rate                    : 0 b/s
Count of elements           : 4
Stream size                 : 216 Bytes (0%)
Title                       : Forced
Language                    : Russian
Default                     : Yes
Forced                      : No

Text #2
ID                          : 5
Format                      : UTF-8
Codec ID                    : S_TEXT/UTF8
Codec ID/Info               : UTF-8 Plain Text
Duration                    : 2 h 9 min
Bit rate                    : 77 b/s
Count of elements           : 1576
Stream size                 : 73.5 KiB (0%)
Title                       : Full
Language                    : Russian
Default                     : No
Forced                      : No

Text #3
ID                          : 6
Format                      : UTF-8
Codec ID                    : S_TEXT/UTF8
Codec ID/Info               : UTF-8 Plain Text
Duration                    : 2 h 10 min
Bit rate                    : 87 b/s
Count of elements           : 2092
Stream size                 : 83.7 KiB (0%)
Title                       : SDH
Language                    : Russian
Default                     : No
Forced                      : No

Text #4
ID                          : 7
Format                      : UTF-8
Codec ID                    : S_TEXT/UTF8
Codec ID/Info               : UTF-8 Plain Text
Duration                    : 2 h 9 min
Bit rate                    : 49 b/s
Count of elements           : 1564
Stream size                 : 47.1 KiB (0%)
Title                       : Full
Language                    : English
Default                     : No
Forced                      : No

Text #5
ID                          : 8
Format                      : UTF-8
Codec ID                    : S_TEXT/UTF8
Codec ID/Info               : UTF-8 Plain Text
Duration                    : 2 h 10 min
Bit rate                    : 57 b/s
Count of elements           : 2081
Stream size                 : 55.1 KiB (0%)
Title                       : SDH
Language                    : English
Default                     : No
Forced                      : No

Menu
00:00:00.000                : en:The Great Prophecy
00:06:20.672                : en:The Tragedy Of Loki Of Asgard
00:14:11.642                : en:A Worthy Inclusion
00:22:12.873                : en:The Goddess Of Death
00:26:43.060                : en:"Are You A Fighter, Or Are You Food?"
00:31:29.721                : en:Heiress Apparent
00:35:03.935                : en:The Grandmaster
00:42:49.734                : en:The Eternal Flame
00:48:31.534                : en:The Contest Of Champions
00:59:38.784                : en:The Resistance
01:07:57.907                : en:Hotheaded Fools
01:17:30.604                : en:The Revengers
01:27:25.323                : en:"The Revolution Has Begun"
01:36:08.721                : en:Ready For War
01:42:35.733                : en:"Asgard Is Not A Place"
01:49:19.887                : en:"What Were You The God Of Again?"
01:54:57.599                : en:Ragnarok
02:00:37.522                : en:End Credits
Релиз:

picpicpicpicpic
Для увеличения картинки щелкните мышкой по превью

Этот торрент недоступен для скачивания без регистрации, однако доступен по публичной magnet-ссылке (источники с публичных трекеров). Перед использованием ссылки прочтите, пожалуйста Пользовательское соглашение, а также как можно дольше оставайтесь на раздаче! Для того, чтобы скачать сам торрент-файл (который видит больше источников), а также для того, чтобы поблагодарить релизера, вам необходимо зарегистрироваться. Если регистрироваться лень - вы можете также попробовать скачать релиз по нашим партнерским ссылкам ниже. Кроме того, зарегистрированным пользователям не показывается всплывающая реклама при скачивании.

[underverse.me].t97716.torrent
Трекер: Зарегистрирован   [ 22.02.2018 22:18 ]  

Статус: T временная (by makkol at 22.02.2018 22:20)
Поблагодарили: пока никто не поблагодарил...
Тип торрента: публичный - доступные источники с открытых трекеров: 
Размер: 26,54 GB (занимает 6,06 DVDR, для записи нужно 7 болванок DVDR/RW)
 
 
Похожие темы
Форум Тема Автор Торрент Отв. Посл. сооб.
Звуковые дорожки к фильмам Тор: Рагнарёк / Thor: Ragnarok (Тифлокомментарии для незрячих / Audiodescription) [2017, 96 kbps, MP3] Dub (iTunes) Futyn
0 | 0

0 | 351

1

25.02.2018 19:01

T Зарубежное кино [DVDRip, Low-Res HDRip, и т.д.] Тор: Рагнарёк / Thor: Ragnarok (Тайка Вайтити) [2017 г., фантастика, боевик, комедия, приключения, WEB-DLRip] Dub (звук с TS) makkol
74 | 3

0 | 1282

40

21.01.2018 22:14

T Зарубежное кино [DVDRip, Low-Res HDRip, и т.д.] Тор: Рагнарёк / Thor: Ragnarok (Тайка Вайтити) [2017 г., фантастика, боевик, комедия, приключения, WEB-DLRip] MVO (@MUZOBOZ@) makkol
50 | 2

0 | 1428

57

22.01.2018 21:31

T Зарубежное кино [DVDRip, Low-Res HDRip, и т.д.] Тор: Рагнарёк / Thor: Ragnarok (Тайка Вайтити) [2017 г., фантастика, боевик, комедия, приключения, WEB-DLRip] Dub (Line) makkol
101 | 5

0 | 1223

30

29.01.2018 22:02

T Зарубежное кино [DVDRip, Low-Res HDRip, и т.д.] Тор: Рагнарёк / Thor: Ragnarok (Тайка Вайтити) [2017 г., фантастика, боевик, комедия, приключения, WEB-DLRip] Dub (Line) makkol
17 | 2

0 | 1946

61

29.01.2018 22:09

T Зарубежное кино [DVDRip, Low-Res HDRip, и т.д.] Тор: Рагнарёк / Thor: Ragnarok (Тайка Вайтити / Taika Waititi) [2017 г., фантастика, боевик, комедия, приключения, HDRip] Dub (чистый звук) 90ytr90
9 | 2

0 | 436

11

17.02.2018 22:28

T Зарубежное кино [DVDRip, Low-Res HDRip, и т.д.] Тор: Рагнарёк / Thor: Ragnarok (Тайка Вайтити / Taika Waititi) [2017 г., фантастика, боевик, комедия, приключения, HDRip] Dub (чистый звук) 90ytr90
3 | 3

0 | 387

10

17.02.2018 22:30

T Зарубежное кино [DVDRip, Low-Res HDRip, и т.д.] Тор: Рагнарёк / Thor: Ragnarok (Тайка Вайтити) [2017 г., фантастика, боевик, комедия, приключения, BDRip] Dub (iTunes) makkol
353 | 12

0 | 2190

26

22.02.2018 21:47

T Зарубежное кино [DVDRip, Low-Res HDRip, и т.д.] Тор: Рагнарёк / Thor: Ragnarok (Тайка Вайтити) [2017 г., фантастика, боевик, комедия, приключения, BDRip] Dub (iTunes) makkol
115 | 3

0 | 600

10

22.02.2018 22:11

T Зарубежное кино [DVDRip, Low-Res HDRip, и т.д.] Тор: Рагнарёк / Thor: Ragnarok (Тайка Вайтити / Taika Waititi) [2017 г., фантастика, боевик, комедия, приключения, BDRip-AVC] Dub (iTunes) + Original (Eng) + Sub (Rus, Eng) 90ytr90
11 | 3

0 | 540

22

24.02.2018 08:55


Яндекс.Метрика powered by Sphinx


В Н И М А Н И Е
Сайт не распространяет и не хранит электронные версии произведений, а лишь бесплатно и без коммерческой выгоды (не требуя взамен платы,
SMS и т.д.) предоставляет доступ к создаваемому пользователями каталогу ссылок на торрент-файлы, которые содержат только списки хеш-сумм.
Убедительная просьба с жалобами обращаться напрямую к пользователю, разместившему торрент файл.

Вверх